Browse Collections Artists Sources   Search Dates

Add Show    List Management    Help


Les Claypool 05/23/09
Three Sisters Park, Chillicothe, IL
Comments Add Comment    Source Collectors    Add to Collection    Add to Want List    History
Source # 103822 Other Sources
Entered by Matt Vernon
Checksums ffp
Disc Counts 0 / 0
Media Size
Date Circulated
Date Added
05/26/09
12/17/2009
Source Summary Source: Schoeps CCM4V\'S(din)>Lunatec V2>Benchmark AD2K> Sound Devices 722 (24/48) Location: FOB/DFC/KFC/ZFC/AARP 42\' From Stage, 7\' High DSP: Sound Devices 722>Sound Forge 9.0>CD Wave>flac(16) Recorded By: Z-Man Seeded By: Z-Man 
Source Information - Download Text | Download Zip
Les Claypool
Summer Camp
Three Sisters Park
Chillicothe, Illinois
5/23/2009

Source: Schoeps CCM4V\'S(din)>Lunatec V2>Benchmark AD2K>
Sound Devices 722 (24/48)
Location: FOB/DFC/KFC/ZFC/AARP 42\' From Stage, 7\' High
DSP: Sound Devices 722>Sound Forge 9.0>CD Wave>flac(16)
Recorded By: Z-Man
Seeded By: Z-Man
  
Disc I

01 Up On The Roof
02 Banter - Sign In the Crowd
03 Rumble of the Diesel
04 Amanitas
05 Long In The Teeth
06 Red States Girl
07 Drum Solo >
08 Precipitation >
09 Mushroom Man
10 Drum Solo >
11 Booneville Stomp
12 Fisticuffs

Fungi Band:

Les Claypool - Bass
Mike Dillon - Percussion
Sam Bass - Cello
Paulo Baldi - Drums

Flac fingerprint

lesclaypool2009-05-23d01t01.flac:0a5a01bc0dda13dcce339000b3247806
lesclaypool2009-05-23d01t02.flac:95f0bfb409601b342af98aa8fbf2cba8
lesclaypool2009-05-23d01t03.flac:ff835bf5df0e4507d8d7acb692808b7f
lesclaypool2009-05-23d01t04.flac:575efe6b076ac20df2ade0ef4027719a
lesclaypool2009-05-23d01t05.flac:8d639b64e041508473676b76a5d55f7b
lesclaypool2009-05-23d01t06.flac:fc606925b1352d7eac5cff3503f5bedd
lesclaypool2009-05-23d01t07.flac:9f2ab6f4a44854a31bb71a89a34ea6dc
lesclaypool2009-05-23d01t08.flac:f0159fe6b202cabc2392534fda1a449c
lesclaypool2009-05-23d01t09.flac:3abeb5b8ee4f807a7dffe2f7ff583d7d
lesclaypool2009-05-23d01t10.flac:1759919a1277a56c84f695c66627849f
lesclaypool2009-05-23d01t11.flac:6a2f6f12bd2e1ba6bc9758b172ec7c88
lesclaypool2009-05-23d01t12.flac:d8b3925d869c3c1b4fff5cc89af0570f

shntool

    length     expanded size    cdr  WAVE problems  fmt   ratio  filename
    10:21.50      109662044 B   ---   --   ---xx   flac  0.4390  lesclaypool2009-05-23d01t01.flac
     1:14.43       13154780 B   ---   --   ---xx   flac  0.2942  lesclaypool2009-05-23d01t02.flac
     6:53.43       72954380 B   ---   --   ---xx   flac  0.4393  lesclaypool2009-05-23d01t03.flac
     7:00.03       74095100 B   ---   --   ---xx   flac  0.3850  lesclaypool2009-05-23d01t04.flac
     4:38.53       49163900 B   ---   --   ---xx   flac  0.3929  lesclaypool2009-05-23d01t05.flac
     5:15.43       55667180 B   ---   --   ---xx   flac  0.3356  lesclaypool2009-05-23d01t06.flac
     1:11.44       12627932 B   ---   --   ---xx   flac  0.3998  lesclaypool2009-05-23d01t07.flac
    12:12.19      129169532 B   ---   --   ---xx   flac  0.4425  lesclaypool2009-05-23d01t08.flac
     3:36.45       38208284 B   ---   --   ---xx   flac  0.3764  lesclaypool2009-05-23d01t09.flac
     0:52.28        9238700 B   ---   --   ---xx   flac  0.3824  lesclaypool2009-05-23d01t10.flac
     5:35.53       59218700 B   ---   --   ---xx   flac  0.4379  lesclaypool2009-05-23d01t11.flac
    10:59.22      116299388 B   ---   --   ---xx   flac  0.4139  lesclaypool2009-05-23d01t12.flac
    69:51.71      739459920 B                            0.4122  (12 files)



Show Checksums
ffp
lesclaypool2009-05-23d01t01.flac:0a5a01bc0dda13dcce339000b3247806
lesclaypool2009-05-23d01t02.flac:95f0bfb409601b342af98aa8fbf2cba8
lesclaypool2009-05-23d01t03.flac:ff835bf5df0e4507d8d7acb692808b7f
lesclaypool2009-05-23d01t04.flac:575efe6b076ac20df2ade0ef4027719a
lesclaypool2009-05-23d01t05.flac:8d639b64e041508473676b76a5d55f7b
lesclaypool2009-05-23d01t06.flac:fc606925b1352d7eac5cff3503f5bedd
lesclaypool2009-05-23d01t07.flac:9f2ab6f4a44854a31bb71a89a34ea6dc
lesclaypool2009-05-23d01t08.flac:f0159fe6b202cabc2392534fda1a449c
lesclaypool2009-05-23d01t09.flac:3abeb5b8ee4f807a7dffe2f7ff583d7d
lesclaypool2009-05-23d01t10.flac:1759919a1277a56c84f695c66627849f
lesclaypool2009-05-23d01t11.flac:6a2f6f12bd2e1ba6bc9758b172ec7c88
lesclaypool2009-05-23d01t12.flac:d8b3925d869c3c1b4fff5cc89af0570f

Comments
Add Comment
Other Sources (comments)
*24Bit* Neumann... (0)
Date User Comment