Browse Collections Artists Sources   Search Dates

Add Show    List Management    Help


Grateful Dead 09/04/80
Providence Civic Center, Providence, RI
Comments Add Comment    Source Collectors    Add to Collection    Add to Want List    History
Source # 104936 Other Sources
Entered by Gary Field
Checksums ffp , flac-md5
Disc Counts 0 / 0
Media Size
Date Circulated
Date Added
12/22/2009
12/22/2009
Source Summary flac24; FOB AUD: 2x Nakamichi CM300/CP1 cardioids > Nakamichi 550 > Maxell XLII 90's, mics on stand, set up FOB aprx 20th row, center right. Taped by Tim Friend & Joe Morrone. Transfer: MAC > Nakamichi DR-2 > Edirol FA-66 > Wavelab > CD-Wave > TLH > FLAC 2448 Tagged. Transfer by Andrew F. 12/2009 
  Archive
Source Information - Download Text | Download Zip
GRATEFUL DEAD
Civic Center
Providence RI
09-04-1980

24bit/48kHz file-set

s1t01 crowd & tuning
s1t02 Feel Like a Stranger
s1t03 Peggy-O
s1t04 Cassidy
s1t05 Dire Wolf
s1t06 Minglewood Blues
s1t07 Althea
s1t08 Looks Like Rain
s1t09 crowd & tuning
s1t10 Far From Me
s1t11 China Cat Sunflower >
s1t12 I Know You Rider

s2t01 crowd & tuning
s2t02 Samson & Delilah
s2t03 Ramble on Rose
s2t04 crowd & tuning
s2t05 Supplication Jam >
s2t06 Estimated Prophet >
s2t07 Eyes of the World >
s2t08 Drums >
s2t09 Space >
s2t10 The Other One >
s2t11 Wharf Rat >
s2t12 Goin' Down the Road >
s2t13 Good Lovin'
s2t14 crowd & tuning
s2t15 Encore: U.S. Blues

FOB AUD: 2x Nakamichi CM300/CP1 cardioids > Nakamichi 550 >
Maxell XLII 90's, mics on stand, set up FOB aprx 20th row,
center right. Taped by Tim Friend & Joe Morrone.

Transfer: MAC > Nakamichi DR-2 > Edirol FA-66 > Wavelab >
CD-Wave > TLH > FLAC 2448 Tagged. Transfer by Andrew F.
12/2009

Note: Patch from ID-93752 in Drums from 4:21 to 4:51.

    length     expanded size    cdr  WAVE problems  fmt   ratio  filename
     2:40.493      46222124 B   cxx   --   ---xx   flac  0.6944  gd1980-09-04s1t01.flac
     7:43.440     133470764 B   cxx   --   ---xx   flac  0.7130  gd1980-09-04s1t02.flac
     6:25.613     111056684 B   cxx   --   ---xx   flac  0.7033  gd1980-09-04s1t03.flac
     5:04.320      87644204 B   cxx   --   ---xx   flac  0.7186  gd1980-09-04s1t04.flac
     4:05.867      70809644 B   cxx   --   ---xx   flac  0.7214  gd1980-09-04s1t05.flac
     7:24.427     127994924 B   cxx   --   ---xx   flac  0.7197  gd1980-09-04s1t06.flac
     8:56.654     154556528 B   cxx   --   ---xx   flac  0.7053  gd1980-09-04s1t07.flac
     8:04.440     139518764 B   cxx   --   ---xx   flac  0.7062  gd1980-09-04s1t08.flac
     1:18.000      22464044 B   cxx   --   ---xx   flac  0.6724  gd1980-09-04s1t09.flac
     4:37.053      79791404 B   cxx   --   ---xx   flac  0.7177  gd1980-09-04s1t10.flac
     5:28.320      94556204 B   cxx   --   ---xx   flac  0.7192  gd1980-09-04s1t11.flac
     6:20.985     109723850 B   cxx   --   ---xx   flac  0.7333  gd1980-09-04s1t12.flac
     1:00.653      17468204 B   cxx   --   ---xx   flac  0.6664  gd1980-09-04s2t01.flac
     7:17.733     126067244 B   cxx   --   ---xx   flac  0.7145  gd1980-09-04s2t02.flac
     7:28.160     129070124 B   cxx   --   ---xx   flac  0.7076  gd1980-09-04s2t03.flac
     1:53.907      32805164 B   cxx   --   ---xx   flac  0.6701  gd1980-09-04s2t04.flac
     4:35.893      79457324 B   cxx   --   ---xx   flac  0.7091  gd1980-09-04s2t05.flac
    10:17.227     177761324 B   cxx   --   ---xx   flac  0.7076  gd1980-09-04s2t06.flac
     7:58.080     137687084 B   cxx   --   ---xx   flac  0.7210  gd1980-09-04s2t07.flac
    11:04.767     191452814 B   cxx   --   ---xx   flac  0.6848  gd1980-09-04s2t08.flac
     6:31.013     112611884 B   cxx   --   ---xx   flac  0.6674  gd1980-09-04s2t09.flac
     8:00.053     138255404 B   cxx   --   ---xx   flac  0.7032  gd1980-09-04s2t10.flac
     9:39.013     166755884 B   cxx   --   ---xx   flac  0.6918  gd1980-09-04s2t11.flac
     6:41.280     115568684 B   cxx   --   ---xx   flac  0.7129  gd1980-09-04s2t12.flac
     8:06.187     140021804 B   cxx   --   ---xx   flac  0.7100  gd1980-09-04s2t13.flac
     0:41.993      12094100 B   cxx   --   ---xx   flac  0.6987  gd1980-09-04s2t14.flac
     5:36.853      97013810 B   cxx   --   ---xx   flac  0.7194  gd1980-09-04s2t15.flac
   165:02.426    2851899990 B                            0.7066  (27 files)

No errors occured.

Show Checksums
ffp
gd1980-09-04s1t01.flac:99f74626c34c65cd8be4ede32f7d9bf1
gd1980-09-04s1t02.flac:7fd3cd0d45be8d72d5350dee8c61e175
gd1980-09-04s1t03.flac:cc766ea43605a897e66c4e60a7b4fe75
gd1980-09-04s1t04.flac:a5d38231afd4e34d5580e8c7a0e91939
gd1980-09-04s1t05.flac:402c144b23894fa0bd191264c4771f69
gd1980-09-04s1t06.flac:a7c73ccec2d5558992fa98b23ce30ac1
gd1980-09-04s1t07.flac:f71008ae7a28f88933c451c886b62143
gd1980-09-04s1t08.flac:e7a4370f94af1aff3b6dc33585272bf5
gd1980-09-04s1t09.flac:7f15d2cbe1ab5f53647b883023f320e9
gd1980-09-04s1t10.flac:508af3e0e2b92dadef3782ff028fa2be
gd1980-09-04s1t11.flac:c168d25e139901f7d1eaa8ca135ed4b6
gd1980-09-04s1t12.flac:b1f08726dc26654ea625844ff1eab0e7
gd1980-09-04s2t01.flac:c5bad6ac805f4d406f2c47eb32900c0e
gd1980-09-04s2t02.flac:c75b3455895757bc8590c9b5273a974a
gd1980-09-04s2t03.flac:933f7d8d7df9c8799c8895f0d631d7bb
gd1980-09-04s2t04.flac:d24ab72c7117e0a3657bb5e6d2f4d96b
gd1980-09-04s2t05.flac:5e8ad7e790d1de95f14283ebb96d1e8e
gd1980-09-04s2t06.flac:16abb1114840e38e20c1d239b06a492f
gd1980-09-04s2t07.flac:58ef7a0207bee5739a21ad199c18b71d
gd1980-09-04s2t08.flac:1bd75627037dc18b09d500ad98f1738f
gd1980-09-04s2t09.flac:a776e8e790e9f48f74e15fc46a8fb3f7
gd1980-09-04s2t10.flac:26cfe01cf693f09dd4adc8bd6ec2cac7
gd1980-09-04s2t11.flac:22e12417698bbf12bee0eb31e692a636
gd1980-09-04s2t12.flac:b386121dc862b5c8e9f0a233276177f4
gd1980-09-04s2t13.flac:136736e789eecfb19179d3c26bcb8320
gd1980-09-04s2t14.flac:c3ffa1b0130cfbbb9f7295877e6cfb23
gd1980-09-04s2t15.flac:69676b8bc5f7998478fd0fba7d345b0e
flac-md5
c051607dff55adc33fbac71c90e1ea03 *gd1980-09-04s1t01.flac
d04a2367297c9f7703cd1a9e3167c115 *gd1980-09-04s1t02.flac
1a59ed27cbaae7c331a7437fb29a2fc4 *gd1980-09-04s1t03.flac
c1336d0a2be9f0c65a54dd36f8766c8c *gd1980-09-04s1t04.flac
cd3a50d27baf0ba6e58443b16b6f93c7 *gd1980-09-04s1t05.flac
1afbc3bc2782f06a2c086fa1610a04ee *gd1980-09-04s1t06.flac
f7f483d7f8c4ca574f7fd916bb692a46 *gd1980-09-04s1t07.flac
7a9817c399598beb823e94dbcc54d7ba *gd1980-09-04s1t08.flac
de0e0750b4996edc893b17178ecd2d5e *gd1980-09-04s1t09.flac
247ce7f123cea65b73c2620e42d563c0 *gd1980-09-04s1t10.flac
e17cd956debaabb063c6c79611409ba7 *gd1980-09-04s1t11.flac
e2ab12f13d71b5df24e8affc14c4fe27 *gd1980-09-04s1t12.flac
ebb0da851533ada0446059859e0fcefc *gd1980-09-04s2t01.flac
c92ca013fc7c8a8f204c852be3050607 *gd1980-09-04s2t02.flac
9781bcf4fe6fab7e1ada6a7658b06060 *gd1980-09-04s2t03.flac
6241088186510b3b484bd216ccac56e3 *gd1980-09-04s2t04.flac
015dfc5266b87def2ec58a653fa33ce4 *gd1980-09-04s2t05.flac
e6c457655b4a2e24fda49262a8e125e7 *gd1980-09-04s2t06.flac
f78babbdef758c443435c9ac9c84bc0b *gd1980-09-04s2t07.flac
c8deb00005a8682fdb6289f365414186 *gd1980-09-04s2t08.flac
2ee2add0096523c27f31f01b2785d8c5 *gd1980-09-04s2t09.flac
5b559ea20f4954d0aa42ef3d1aaec69d *gd1980-09-04s2t10.flac
21f25ed0b27f359f7c95fa74b40560f9 *gd1980-09-04s2t11.flac
098d275edf94a50a27570ec0754e884c *gd1980-09-04s2t12.flac
161c6b140afdc770a73ef2b67863b828 *gd1980-09-04s2t13.flac
801a98ac3fa1735f48935994f1b5a85d *gd1980-09-04s2t14.flac
cb296943a47ae72912ee2b8368282d0f *gd1980-09-04s2t15.flac

Comments
Add Comment
Other Sources (comments)
AUD>MC>DAT>SF>CD;... (0) Set 1... (0) Set 2 Soundboard Cassette... (2) Recording by Jim Wise: FOB... (0) flac16; Recording... (0) flac16; Recording... (0) flac16; Matrix by... (0) flac16; Nakamichi... (0) flac16; FOB AUD: 2x... (2) flac24; Nakamichi... (0) flac24; Recording by... (1)
Date User Comment
02/02/2013 nfagdtrfb text file correction: taped by Tim Friend & Joe Morrone, thanks guys!
02/03/2013 Wharfrat73 Updated info file.