Browse Collections Artists Sources   Search Dates

Add Show    List Management    Help


Grateful Dead 09/04/80
Providence Civic Center, Providence, RI
Comments Add Comment    Source Collectors    Add to Collection    Add to Want List    History
Source # 104937 Other Sources
Entered by Gary Field
Checksums ffp , flac-md5
Disc Counts 2 / 3
Media Size
Date Circulated
Date Added
12/22/2009
12/22/2009
Source Summary flac16; FOB AUD: 2x Nakamichi CM300/CP1 cardioids > Nakamichi 550 > Maxell XLII 90's, mics on stand, set up FOB aprx 20th row, center right. Taped by Tim Friend & Joe Morrone. Transfer: MAC > Nakamichi DR-2 > Edirol FA-66 > Wavelab > CD-Wave > R8Brain > TLH > FLAC 1644 Tagged. Transfer by Andrew F. 12/2009 
  Archive
Source Information - Download Text | Download Zip
GRATEFUL DEAD
Civic Center
Providence RI
09-04-1980

16bit/44.1kHz file-set

s1t01 crowd & tuning
s1t02 Feel Like a Stranger
s1t03 Peggy-O
s1t04 Cassidy
s1t05 Dire Wolf
s1t06 Minglewood Blues
s1t07 Althea
s1t08 Looks Like Rain
s1t09 crowd & tuning
s1t10 Far From Me
s1t11 China Cat Sunflower >
s1t12 I Know You Rider

s2t01 crowd & tuning
s2t02 Samson & Delilah
s2t03 Ramble on Rose
s2t04 crowd & tuning
s2t05 Supplication Jam >
s2t06 Estimated Prophet >
s2t07 Eyes of the World >
s2t08 Drums >
s2t09 Space >
s2t10 The Other One >
s2t11 Wharf Rat >
s2t12 Goin' Down the Road >
s2t13 Good Lovin'
s2t14 crowd & tuning
s2t15 Encore: U.S. Blues

FOB AUD: 2x Nakamichi CM300/CP1 cardioids > Nakamichi 550 >
Maxell XLII 90's, mics on stand, set up FOB aprx 20th row,
center right. Taped by Tim Friend & Joe Morrone.

Transfer: MAC > Nakamichi DR-2 > Edirol FA-66 > Wavelab >
CD-Wave > R8Brain > TLH > FLAC 1644 Tagged. Transfer by
Andrew F. 12/2009

Note: Patch from ID-93752 in Drums from 4:21 to 4:51.
CDR: D1 s1t01 > s1t12, D2 s2t01 > s2t08, D3 s2t09 > s2t15.

    length     expanded size    cdr  WAVE problems  fmt   ratio  filename
     2:40.37       28311068 B   ---   --   ---xx   flac  0.5576  gd1980-09-04s1t01.flac
     7:43.33       81750860 B   ---   --   ---xx   flac  0.5856  gd1980-09-04s1t02.flac
     6:25.46       68022236 B   ---   --   ---xx   flac  0.5700  gd1980-09-04s1t03.flac
     5:04.24       53682092 B   ---   --   ---xx   flac  0.5944  gd1980-09-04s1t04.flac
     4:05.65       43370924 B   ---   --   ---xx   flac  0.5991  gd1980-09-04s1t05.flac
     7:24.32       78396908 B   ---   --   ---xx   flac  0.5961  gd1980-09-04s1t06.flac
     8:56.49       94665692 B   ---   --   ---xx   flac  0.5730  gd1980-09-04s1t07.flac
     8:04.33       85455260 B   ---   --   ---xx   flac  0.5748  gd1980-09-04s1t08.flac
     1:18.00       13759244 B   ---   --   ---xx   flac  0.5195  gd1980-09-04s1t09.flac
     4:37.04       48872252 B   ---   --   ---xx   flac  0.5931  gd1980-09-04s1t10.flac
     5:28.24       57915692 B   ---   --   ---xx   flac  0.5962  gd1980-09-04s1t11.flac
     6:20.73       67203740 B   ---   --   ---xx   flac  0.6192  gd1980-09-04s1t12.flac
     1:00.49       10699292 B   ---   --   ---xx   flac  0.5155  gd1980-09-04s2t01.flac
     7:17.55       77216204 B   ---   --   ---xx   flac  0.5882  gd1980-09-04s2t02.flac
     7:28.12       79055468 B   ---   --   ---xx   flac  0.5771  gd1980-09-04s2t03.flac
     1:53.68       20093180 B   ---   --   ---xx   flac  0.5160  gd1980-09-04s2t04.flac
     4:35.67       48667628 B   ---   --   ---xx   flac  0.5794  gd1980-09-04s2t05.flac
    10:17.17      108878828 B   ---   --   ---xx   flac  0.5768  gd1980-09-04s2t06.flac
     7:58.06       84333356 B   ---   --   ---xx   flac  0.5986  gd1980-09-04s2t07.flac
    11:04.58      117266060 B   ---   --   ---xx   flac  0.5397  gd1980-09-04s2t08.flac
     6:31.01       68974796 B   ---   --   ---xx   flac  0.5108  gd1980-09-04s2t09.flac
     8:00.04       84681452 B   ---   --   ---xx   flac  0.5693  gd1980-09-04s2t10.flac
     9:39.01      102137996 B   ---   --   ---xx   flac  0.5509  gd1980-09-04s2t11.flac
     6:41.21       70785836 B   ---   --   ---xx   flac  0.5851  gd1980-09-04s2t12.flac
     8:06.14       85763372 B   ---   --   ---xx   flac  0.5804  gd1980-09-04s2t13.flac
     0:41.74        7406492 B   ---   --   ---xx   flac  0.5632  gd1980-09-04s2t14.flac
     5:36.65       59423324 B   ---   --   ---xx   flac  0.5968  gd1980-09-04s2t15.flac
   165:02.32     1746789252 B                            0.5753  (27 files)

No errors occured.

Show Checksums
ffp
gd1980-09-04s1t01.flac:a0a4e750c2d6bdc59749ce9772be9a22
gd1980-09-04s1t02.flac:131540298f0795a0b2e9f3f9b6175a60
gd1980-09-04s1t03.flac:cf00b94cd0f6594fbd8ba47bee856772
gd1980-09-04s1t04.flac:5bd6f809f8ef2a951450d06505a6e42f
gd1980-09-04s1t05.flac:7a675477059d95b4e3a1d9d38794b586
gd1980-09-04s1t06.flac:c7006e7d6ef5223bae8605dad58b2e74
gd1980-09-04s1t07.flac:8fdf0ff9b0bdcebfc8baad895618a961
gd1980-09-04s1t08.flac:c3451d1e06593cb311de787ae36f766a
gd1980-09-04s1t09.flac:e7519e0374d886e063a624d9039123f9
gd1980-09-04s1t10.flac:0bcdbc6caafa6eab362ee99ecbbcf5dd
gd1980-09-04s1t11.flac:90618ba7b159d83fb5782654125d117b
gd1980-09-04s1t12.flac:99d6f3ef468f1e1ed58b7547071aba05
gd1980-09-04s2t01.flac:456cd29173291c39f9d7230c11969007
gd1980-09-04s2t02.flac:3e26c113461e9cf1c564d77cdee74bd6
gd1980-09-04s2t03.flac:b1ec89cbb3117517e6d8d015e90082dc
gd1980-09-04s2t04.flac:09841e46a0ed566a2fd93827f703106d
gd1980-09-04s2t05.flac:faca7bd626726bbb6725bc0fe747231d
gd1980-09-04s2t06.flac:203c33624c5b5bdf5d3b202afebab489
gd1980-09-04s2t07.flac:8efd999a4c2dd591bd48093d3e24a9e5
gd1980-09-04s2t08.flac:09fd5ef1a4c406aedcf283d64dabfdbb
gd1980-09-04s2t09.flac:b384646c81cc9dc22dc959e9855434aa
gd1980-09-04s2t10.flac:649425e65f1d170d41b3e39704f47f5a
gd1980-09-04s2t11.flac:2a600c78fe650aac8d757b8b33ab5a5a
gd1980-09-04s2t12.flac:b6f772b4bd7f02e63c7c36da8d132384
gd1980-09-04s2t13.flac:3cf58053ecee7413463708462b1e9412
gd1980-09-04s2t14.flac:9b7bc26d1f4d63f5bdc87635c32cdd54
gd1980-09-04s2t15.flac:e13c687f247827ac83210a742657d9eb
flac-md5
b1ae053e021d0c6da90e810b89ef34f9 *gd1980-09-04s1t01.flac
1595b43472049be5352508e15c61aac3 *gd1980-09-04s1t02.flac
550f619e8bea023ea7c23e6ca5196d8e *gd1980-09-04s1t03.flac
d5816627e62eb304d743bcada3dbdda1 *gd1980-09-04s1t04.flac
46fa54b9289f06aecb945c4c808258b0 *gd1980-09-04s1t05.flac
2cb7a1ab4c6b7dde39f5f35a4dad32bc *gd1980-09-04s1t06.flac
107de03a92156d045434578f2ba955c3 *gd1980-09-04s1t07.flac
f21ff122ef73b69f7ded06a2b63a458f *gd1980-09-04s1t08.flac
894863f42d44b8cd3c457ea76e9c8bca *gd1980-09-04s1t09.flac
5bd5d3230aa6ae84949af839aeff4d82 *gd1980-09-04s1t10.flac
f0c6d9e606bb815ae032b44275512d8f *gd1980-09-04s1t11.flac
2bb1861509f329176cd4438ca75a0b0a *gd1980-09-04s1t12.flac
07f03f880fced1d3e94687c7b7eba329 *gd1980-09-04s2t01.flac
4854fe42d381c21acb9e49c72a510b0b *gd1980-09-04s2t02.flac
6e9f0e9306272f3a9682be1398e555bd *gd1980-09-04s2t03.flac
5f4cd4dce38be96f4ba2c8f3c7750e12 *gd1980-09-04s2t04.flac
9276aafcb906403c895ec3b1912a0126 *gd1980-09-04s2t05.flac
61c59677a4d2b3a58e2bbbe75c960e31 *gd1980-09-04s2t06.flac
b41a3a78e6a6ca4b41dc62a04c64e7f9 *gd1980-09-04s2t07.flac
cbf96fb31b70aad885e60aecce228bdf *gd1980-09-04s2t08.flac
9f6e7330b8f5329ebf8bbd9d338e5a15 *gd1980-09-04s2t09.flac
a75e10efc305835603c1a47003b7eeb0 *gd1980-09-04s2t10.flac
6dabc546d8c141fa681e3c5e786b53c4 *gd1980-09-04s2t11.flac
aa57a6a316bc59fe4055acb99680a0e5 *gd1980-09-04s2t12.flac
51ce4e84b9c524ea5fa4791259c6f15e *gd1980-09-04s2t13.flac
4382dfc794f63671a51b65e18f91013d *gd1980-09-04s2t14.flac
8a509fb5decb6f97f82285b5e4189657 *gd1980-09-04s2t15.flac

Comments
Add Comment
Other Sources (comments)
AUD>MC>DAT>SF>CD;... (0) Set 1... (0) Set 2 Soundboard Cassette... (2) Recording by Jim Wise: FOB... (0) flac16; Recording... (0) flac16; Recording... (0) flac16; Matrix by... (0) flac16; Nakamichi... (0) flac24; FOB AUD: 2x... (2) flac24; Nakamichi... (0) flac24; Recording by... (1)
Date User Comment
02/02/2013 nfagdtrfb text file correction: taped by Tim Friend & Joe Morrone, thanks guys!
02/03/2013 Wharfrat73 Updated info file.