Browse Collections Artists Sources   Search Dates

Add Show    List Management    Help


Grateful Dead 06/05/93
Giants Stadium, East Rutherford, NJ
Comments Add Comment    Source Collectors    Add to Collection    Add to Want List    History
Source # 104982 Other Sources
Entered by dr.unclear
Checksums ffp , flac-md5
Disc Counts 0 / 0
Media Size
Date Circulated
Date Added
12/25/2009
12/25/2009
Source Summary flac16; AUD: Nakamichi CM300/CP4 shotguns > Sony TC-D5M > Maxell MXS 90/100, set up back of floor. Taped by Ted Carpenter. Transfer: MAC > Nakamichi DR-2 > Edirol FA-66 > Wavelab > R8Brain > CD-Wave > TLH > FLAC 1644 Tagged. Transfer by Andrew F. 12/2009 
  Archive
Source Information - Download Text | Download Zip
GRATEFUL DEAD
Giants Stadium
East Rutherford NJ
06-05-1993

s1t01 Hell in a Bucket >
s1t02 Sugaree
s1t03 Wang Dang Doodle
s1t04 Peggy-O
s1t05 Eternity
s1t06 Candyman
s1t07 Music Never Stopped >
s1t08 Easy Answers >
s1t09 Music Never Stopped Reprise

s2t01 crowd & tuning
s2t02 Scarlet Begonias >
s2t03 Fire on the Mountain
s2t04 Long Way to Go Home
s2t05 Crazy Fingers >
s2t06 Estimated Prophet >
s2t07 Drums >
s2t08 Space >
s2t09 The Other One >
s2t10 Stella Blue >
s2t11 One More Saturday Night
s2t12 crowd & tuning
s2t13 Encore: Box of Rain

AUD: Nakamichi CM300/CP4 shotguns > Sony TC-D5M > Maxell
MXS 90/100, set up back of floor. Taped by Ted Carpenter.  

Transfer: MAC > Nakamichi DR-2 > Edirol FA-66 > Wavelab >
R8Brain > CD-Wave > TLH > FLAC 1644 Tagged. Transfer by
Andrew F. 12/2009

Notes: ID-8041 patchesin Bucket 0:00 > 0:19, Candyman
0:00 > 1:13, and Drums 3:34 > 3:53. Some wind noise on
the recording can be heard during Stella Blue.

CDRs: D1 s1t01>s1t09, D2 s2t01>s2t07, D3 s2t08>s2t13.

    length     expanded size    cdr  WAVE problems  fmt   ratio  filename
     6:51.68       72660380 B   ---   --   ---xx   flac  0.5576  gd1993-06-05s1t01.flac
    15:02.08      159131660 B   ---   --   ---xx   flac  0.5310  gd1993-06-05s1t02.flac
     6:43.09       71110412 B   ---   --   ---xx   flac  0.5344  gd1993-06-05s1t03.flac
     7:24.35       78403964 B   ---   --   ---xx   flac  0.5144  gd1993-06-05s1t04.flac
     8:48.64       93289772 B   ---   --   ---xx   flac  0.5236  gd1993-06-05s1t05.flac
     7:08.36       75583916 B   ---   --   ---xx   flac  0.5272  gd1993-06-05s1t06.flac
     3:18.69       35089532 B   ---   --   ---xx   flac  0.5659  gd1993-06-05s1t07.flac
     6:17.08       66521660 B   ---   --   ---xx   flac  0.5665  gd1993-06-05s1t08.flac
     3:49.12       40423868 B   ---   --   ---xx   flac  0.5669  gd1993-06-05s1t09.flac
     0:52.35        9255164 B   ---   --   ---xx   flac  0.4657  gd1993-06-05s2t01.flac
     8:19.08       88042460 B   ---   --   ---xx   flac  0.5636  gd1993-06-05s2t02.flac
    11:45.50      124479644 B   ---   --   ---xx   flac  0.5634  gd1993-06-05s2t03.flac
     6:32.50       69266444 B   ---   --   ---xx   flac  0.5713  gd1993-06-05s2t04.flac
     8:49.34       93395612 B   ---   --   ---xx   flac  0.5446  gd1993-06-05s2t05.flac
    12:22.74      131062892 B   ---   --   ---xx   flac  0.5653  gd1993-06-05s2t06.flac
    14:36.27      154589948 B   ---   --   ---xx   flac  0.5328  gd1993-06-05s2t07.flac
    10:03.06      106383356 B   ---   --   ---xx   flac  0.5091  gd1993-06-05s2t08.flac
     9:56.11      105160316 B   ---   --   ---xx   flac  0.5641  gd1993-06-05s2t09.flac
     8:21.04       88385852 B   ---   --   ---xx   flac  0.5152  gd1993-06-05s2t10.flac
     5:05.50       53919644 B   ---   --   ---xx   flac  0.5906  gd1993-06-05s2t11.flac
     2:10.71       23099036 B   ---   --   ---xx   flac  0.4894  gd1993-06-05s2t12.flac
     5:53.73       62440940 B   ---   --   ---xx   flac  0.5585  gd1993-06-05s2t13.flac
   170:13.52     1801696472 B                            0.5442  (22 files)

No errors occured.
Show Checksums
ffp
gd1993-06-05s1t01.flac:c2b96d48036d4ec5084cf9575ff0c131
gd1993-06-05s1t02.flac:71daeaa523f1481cee194ee23ffb9956
gd1993-06-05s1t03.flac:17ed9716cea6910d58820b3d991dd14d
gd1993-06-05s1t04.flac:0af5ac19ad0bafaf01654eaab4d30fd2
gd1993-06-05s1t05.flac:f50a4cf5cca45a5d7d26440d6c68133e
gd1993-06-05s1t06.flac:00804336007734dfc5e937f9b7cefcb5
gd1993-06-05s1t07.flac:4e9e56e6a860d51eeeb2afa741925e7b
gd1993-06-05s1t08.flac:4033b5dd555b743c1e4c9e62c233051b
gd1993-06-05s1t09.flac:50b0948a0a03184d8dac5c88a319fda2
gd1993-06-05s2t01.flac:9e8a08c5243b97a3c247cb505a3192f2
gd1993-06-05s2t02.flac:7b7c42757304ddf956d269d665a118dc
gd1993-06-05s2t03.flac:53fcbc5f9a27d4d6c4a2cde9140b5f47
gd1993-06-05s2t04.flac:10778330cb5aa468de51818f72eb957c
gd1993-06-05s2t05.flac:b9173b41dba07cae700dfce8d55822c2
gd1993-06-05s2t06.flac:7fdf3cfbb809118a8db65cec98d56c5c
gd1993-06-05s2t07.flac:3fb6b31e7efaf01d93482922a76b6df7
gd1993-06-05s2t08.flac:a4e9e8c0c32ae46e43a7399812bf0c87
gd1993-06-05s2t09.flac:5225ada1fddd99bb7c86158c75f52165
gd1993-06-05s2t10.flac:dbb3cd099cf488749cfefc8c7eb530f2
gd1993-06-05s2t11.flac:2d197af70705b366a3de25462abdfe84
gd1993-06-05s2t12.flac:f7fee20d84a2fa09be68f027900d985e
gd1993-06-05s2t13.flac:63561a7e950a658e8e2b1484444e8f7c
flac-md5
b60afaab0dec51c54da561e79e68fa99 *gd1993-06-05s1t01.flac
f69c34ac288d7ed1e1a496a9601d1dbc *gd1993-06-05s1t02.flac
fa0ea8b3478ff36a4fa99d68b689cf69 *gd1993-06-05s1t03.flac
b069c1442360cc2f1670b11aefe2a80b *gd1993-06-05s1t04.flac
632b5c7c5289109e3bcd9c229660874d *gd1993-06-05s1t05.flac
82502e3f12d4985c7c048d176f3daf47 *gd1993-06-05s1t06.flac
2b1459734679ccdb9eaea9becc6fdf4d *gd1993-06-05s1t07.flac
30492769982649f2d6cda5b8aa4cf034 *gd1993-06-05s1t08.flac
c5249f619564c905681caa7bf38f3fc0 *gd1993-06-05s1t09.flac
d101be8e34236deff392daa0d09c4382 *gd1993-06-05s2t01.flac
1a95968864c09634e203f1d87fada2b7 *gd1993-06-05s2t02.flac
83971ab7f1a8ec8c406302c70f988a07 *gd1993-06-05s2t03.flac
9369954ac0e2dcab5f82400106db80c8 *gd1993-06-05s2t04.flac
ff22ace8b0f31474c9300337041aae86 *gd1993-06-05s2t05.flac
a57e197e514fa30e93fa69c44833e271 *gd1993-06-05s2t06.flac
3e77bcaae30dba9d421c306ba484b0bd *gd1993-06-05s2t07.flac
232959394bd6273b22e0e9dce377468d *gd1993-06-05s2t08.flac
94378648b773939b764f2efb363db8ca *gd1993-06-05s2t09.flac
d052a05e67cfd0dd80055de19f17637d *gd1993-06-05s2t10.flac
55a9a6aceda4d5c35e021c6b804548da *gd1993-06-05s2t11.flac
364ed93ff5e0c0ae3631499202a8414b *gd1993-06-05s2t12.flac
260c6ea0a662fc23b8206a52f1fe9699 *gd1993-06-05s2t13.flac

Comments
Add Comment
Other Sources (comments)
AUD>DAT>CDR; via Paul B.;... (0) DSDB master> DAT Clone> ?>... (2) flac24; Master... (0) flac16; Master... (0) flac16/48kHz; Set 2... (0)
Date User Comment