Browse Collections Artists Sources   Search Dates

Add Show    List Management    Help


Grateful Dead 08/29/83
Silva Hall, Hult Center, Eugene, OR
Comments Add Comment    Source Collectors    Add to Collection    Add to Want List    History
Source # 105285 Other Sources
Entered by Matt Vernon
Checksums flac-md5 , ffp
Disc Counts 2 / 2
Media Size
Date Circulated
Date Added
01/04/2009
01/04/2010
Source Summary flac16; Source: Unknown audience recording > cass (unknown gens) Lineage: cass > Nakamichi BX-125E > EMU 0202 > Wavelab 6 > wav 24/96 > Adobe Audition 1.5 > Wavelab 6 (with iZotope Ozone 4) > iZotope RX Advanced > wav 16/44.1 > CD Wave > flac 16 
  Archive
Source Information - Download Text | Download Zip
Grateful Dead
Silva Hall, Hult Center for the Performing Arts
Eugene, OR
08/29/1983

Source:  Unknown audience recording > cass (unknown gens)
Lineage: cass > Nakamichi BX-125E > EMU 0202 > Wavelab 6 > wav 24/96 > Adobe Audition 1.5 >
               Wavelab 6 (with iZotope Ozone 4) > iZotope RX Advanced > wav 16/44.1 > CD Wave > flac 16


Disc 1
set I

01   Shakedown Street
02   tuning
03   Minglewood Blues
04   tuning
05   Friend Of The Devil
06   crowd/tuning
07   Hell In A Bucket
08   Bird Song
09   It's All Over Now
10   Might As Well

set II

11   China Cat Sunflower >
12   I Know You Rider


Disc 2
set II cont'd

01   Estimated Prophet > *
02   Eyes Of The World >
03   Dru//ms >
04   Space >
05   The Wheel >
06   The Other One >
07   Goin' Down The Road Feeling Bad >
08   Johnny B. Goode


encore

U.S. Blues


Notes:

- All tracks were speed adjusted by reference to shnid 11603.
- There is distortion, more so on Disc 1,which has been reduced but is still noticeable.
- Noise reduction has been applied from start of show to end of "I Know You Rider"
- Tape flips after "I Know You Rider" and "Hell in a Bucket" have been crossfaded.
- There is a tape flip in "Drums" which has been crossfaded, approximately 53 seconds are missing.
- Seamless transition between discs, Disc 1 will require an overburn.


Comments:

- It seems that this was put together from 2 different sources, i.e. different gens.  From "Estimated" through to the
   end of the show sounds noticeably better.
* The circulating sbd was thought to have a sub second dropout, however, it's evident from this source that it's a little
   more than that.  This recording is around 41 seconds longer.

This copy won't win any prizes for quality but it's very listenable and full of energy.  Hopefully a better copy will surface.


Many thanks to Uncle Barry for lending me his tapes.


transfer, editing and mastering

SIRMick
January 2009


shntool output:

    length     expanded size    cdr  WAVE problems  fmt   ratio  filename
    12:58.30      137309804 B   ---   --   ---xx   flac  0.6469  gd1983-08-29d1t01.flac
     1:28.37       15610268 B   ---   --   ---xx   flac  0.5689  gd1983-08-29d1t02.flac
     8:23.01       88731596 B   ---   --   ---xx   flac  0.6485  gd1983-08-29d1t03.flac
     1:08.52       12117548 B   ---   --   ---xx   flac  0.5507  gd1983-08-29d1t04.flac
     9:16.71       98245436 B   ---   --   ---xx   flac  0.6425  gd1983-08-29d1t05.flac
     1:29.59       15838412 B   ---   --   ---xx   flac  0.5497  gd1983-08-29d1t06.flac
     5:58.31       63224156 B   ---   --   ---xx   flac  0.6438  gd1983-08-29d1t07.flac
    10:55.35      115624364 B   ---   --   ---xx   flac  0.6655  gd1983-08-29d1t08.flac
     9:02.54       95735852 B   ---   --   ---xx   flac  0.6747  gd1983-08-29d1t09.flac
     4:32.21       48030236 B   ---   --   ---xx   flac  0.6797  gd1983-08-29d1t10.flac
     7:37.54       80741852 B   ---   --   ---xx   flac  0.6725  gd1983-08-29d1t11.flac
     7:33.72       80078588 B   ---   --   ---xx   flac  0.6539  gd1983-08-29d1t12.flac
    13:48.74      146233292 B   ---   --   ---xx   flac  0.6518  gd1983-08-29d2t01.flac
    10:02.59      106331612 B   ---   --   ---xx   flac  0.6630  gd1983-08-29d2t02.flac
    10:59.04      116257052 B   ---   --   ---xx   flac  0.6008  gd1983-08-29d2t03.flac
     7:47.53       82503500 B   ---   --   ---xx   flac  0.5627  gd1983-08-29d2t04.flac
     5:03.36       53533916 B   ---   --   ---xx   flac  0.6613  gd1983-08-29d2t05.flac
     6:36.04       69863852 B   ---   --   ---xx   flac  0.6664  gd1983-08-29d2t06.flac
     7:40.05       81155804 B   ---   --   ---xx   flac  0.6666  gd1983-08-29d2t07.flac
     4:15.48       45094940 B   ---   --   ---xx   flac  0.6666  gd1983-08-29d2t08.flac
     5:19.23       56325740 B   ---   --   ---xx   flac  0.6786  gd1983-08-29d2t09.flac
   151:58.73     1608587820 B                            0.6476  (21 files)
Show Checksums
flac-md5
f729e4c4ab3834bcbf322ac6c3ab74ce *gd1983-08-29d1t01.flac
9c7f9811d946915d981b3a257037de8f *gd1983-08-29d1t02.flac
9765d3d82d20aeab49603a78df457286 *gd1983-08-29d1t03.flac
5dbda33cffefe57b58edb705a253cfe5 *gd1983-08-29d1t04.flac
271b0d305466116127377d5fcac4630f *gd1983-08-29d1t05.flac
9dfd3c83780662f056f00ce318242513 *gd1983-08-29d1t06.flac
b7e8bfbe80bff2825fc188cbf6ac4618 *gd1983-08-29d1t07.flac
90a727a69b35f74e8481f537a00c7766 *gd1983-08-29d1t08.flac
e0c5afb010b77b7a01027aa093574faa *gd1983-08-29d1t09.flac
df24aff31ad7e7f2f5eb47e05c8956a0 *gd1983-08-29d1t10.flac
28dce1e20f6e49b1c4b9adf8727058d1 *gd1983-08-29d1t11.flac
c5382103149913eabf4b8d7f86d8df6b *gd1983-08-29d1t12.flac
40e86bf5c970446c6000cc5ca9619170 *gd1983-08-29d2t01.flac
a0df7bc2b6d62aeb07dcf622feac697d *gd1983-08-29d2t02.flac
32859e8414b2c83a8de3e182bab51420 *gd1983-08-29d2t03.flac
cd7bc5db22a989e9db748c0171913ed7 *gd1983-08-29d2t04.flac
4bdab98a3dd0df287a6fe6aeb48ef0f2 *gd1983-08-29d2t05.flac
a876393b8eba220be612f4f3c1e23440 *gd1983-08-29d2t06.flac
8c16019d65dc2540b6d3d7e78df8b8b5 *gd1983-08-29d2t07.flac
eee65d12ffca47c875193c730498ef29 *gd1983-08-29d2t08.flac
a0fc8a5c1f0641e8a176be5c877bf83e *gd1983-08-29d2t09.flac
ffp
gd1983-08-29d1t01.flac:aea7918d98f74306cb3d70f23a97c8ea
gd1983-08-29d1t02.flac:265032c2679c64bddd69ec9021e3c241
gd1983-08-29d1t03.flac:0ad004d5cc829affb5b047071cb05d8c
gd1983-08-29d1t04.flac:233bbe83d36d84e903e6eacce3e9f937
gd1983-08-29d1t05.flac:aff3b55d9d14a129e27d36a3efd27ef1
gd1983-08-29d1t06.flac:4d91fbb59a00083297137051139ffbf2
gd1983-08-29d1t07.flac:359fec43de371a40e28135c658661130
gd1983-08-29d1t08.flac:0f7e10c2c40221c49dd77bd499f10e7b
gd1983-08-29d1t09.flac:142d0079bd7e86333c9229629f2db205
gd1983-08-29d1t10.flac:194819e1e64f7302dfb77a51aeaa7b5f
gd1983-08-29d1t11.flac:58728f7547142c7d7aa02d39b3c10368
gd1983-08-29d1t12.flac:cc04069c9233b7742dc360a1fde5544a
gd1983-08-29d2t01.flac:2ca6d4307945a3b54122705d51c3cc37
gd1983-08-29d2t02.flac:a2a256e14d754885c05e8e710b3171b6
gd1983-08-29d2t03.flac:78024bb7c35f16f21094c2e682d499df
gd1983-08-29d2t04.flac:1c4051bba25b4158eb885fc4f2c10815
gd1983-08-29d2t05.flac:4a8c96c45b58582b9bf6243d355428d8
gd1983-08-29d2t06.flac:bfea72d1c8298746870b121fe3279aa0
gd1983-08-29d2t07.flac:7d9c980bf0be830d6eaad005ddbc438c
gd1983-08-29d2t08.flac:659db0f75f0ebf50d8e10c8814a81876
gd1983-08-29d2t09.flac:6616bc6c0165ed4fd78316cc918d43ef

Comments
Add Comment
Other Sources (comments)
SBD>Cass(2)>DAT>CDR; Seeded... (0) flac16; FOB AUD:... (0) flac16; Source: 2... (0) flac16; Soundboard >... (1) flac16/48kHz;... (0) flac24; Source Info:... (0) flac16; Source Info:... (0) flac16/44.1 ... (0) flac24/48 Source:... (0)
Date User Comment