Browse Collections Artists Sources   Search Dates

Add Show    List Management    Help


The Slip 01/02/10
Sullivan Hall, New York, NY
Comments Add Comment    Source Collectors    Add to Collection    Add to Want List    History
Source # 105486 Other Sources
Entered by ziko
Checksums ffp
Disc Counts 2 / 3
Media Size
Date Circulated
Date Added
01/12/10
01/14/2010
Source Summary DPA 4023>Lunatec V3>AD2K(24bit/48khz)>Tascam HDP2; CF Card>USB>Soundforge 8(tracking,set 2 normalizing,resample/dither to 16bit/44.1khz)>FLAC (sector alignment,Level 8) 
Source Information - Download Text | Download Zip
The Slip
2010-01-02
Sullivan Hall
NYC, NY

Recorded by John Lynch
Transferred by Andy Murray

Mics were DIN,FOB Left of Center 20' from stage
DPA 4023>Lunatec V3>AD2K(24bit/48khz)>Tascam HDP2
CF Card>USB>Soundforge 8(tracking,set 2 normalizing,resample/dither to 16bit/44.1khz)>FLAC (sector alignment,Level 8)

3 Discs
2 Sets

Disc 1:
Set 1:

01 [introduction]
02 Aurora
03 Broke The Promise Land
04 Gaunt Debutante
05 Give the Devil Back His Heart
06 If You Knew
07 The Soft Machine
08 Happy Snails
09 All I Saw Was You
10 Children of December

Disc 2:
Set 2:

01 [introduction]
02 Paper Birds
03 Motherwolf*
04 [banter]
05 Airplane/Primitive
06 Wolof
07 Suffication Keep
08 [encore break]

Disc 3:
Set 2 cont..(encores)

09 Let There Be Horses
10 [second encore break]
11 Pass It On
12 Heartbreaker (Zep)*
*with Marco Benevento

Thanks to NYC Taper for the setlist

    length     expanded size   cdr  WAVE problems filename
     1:13.36       12961916    ---   --   -----   slip2010-01-02_dpa4023_1644_d1t01.wav
     4:00.59       42474812    ---   --   -----   slip2010-01-02_dpa4023_1644_d1t02.wav
     6:00.25       63562844    ---   --   -----   slip2010-01-02_dpa4023_1644_d1t03.wav
     7:04.37       74880668    ---   --   -----   slip2010-01-02_dpa4023_1644_d1t04.wav
    10:21.23      109598540    ---   --   -----   slip2010-01-02_dpa4023_1644_d1t05.wav
     4:51.44       51435932    ---   --   -----   slip2010-01-02_dpa4023_1644_d1t06.wav
     9:32.43      101001980    ---   --   -----   slip2010-01-02_dpa4023_1644_d1t07.wav
     7:47.31       82451756    ---   --   -----   slip2010-01-02_dpa4023_1644_d1t08.wav
     8:54.31       94270556    ---   --   -----   slip2010-01-02_dpa4023_1644_d1t09.wav
    10:39.38      112809020    ---   --   -----   slip2010-01-02_dpa4023_1644_d1t10.wav
     1:32.02       16233548    ---   --   -----   slip2010-01-02_dpa4023_1644_d2t01.wav
    15:32.70      164569484    ---   --   -----   slip2010-01-02_dpa4023_1644_d2t02.wav
     7:52.13       83291420    ---   --   -----   slip2010-01-02_dpa4023_1644_d2t03.wav
     2:53.21       30566636    ---   --   -----   slip2010-01-02_dpa4023_1644_d2t04.wav
     8:30.53       90088700    ---   --   -----   slip2010-01-02_dpa4023_1644_d2t05.wav
    13:24.65      141978524    ---   --   -----   slip2010-01-02_dpa4023_1644_d2t06.wav
    10:11.71      107947436    ---   --   -----   slip2010-01-02_dpa4023_1644_d2t07.wav
     1:39.55       17593004    ---   --   -----   slip2010-01-02_dpa4023_1644_d2t08.wav
     4:31.67       47962028    ---   --   -----   slip2010-01-02_dpa4023_1644_d3t01.wav
     2:26.50       25872044    ---   --   -----   slip2010-01-02_dpa4023_1644_d3t02.wav
     7:37.34       80694812    ---   --   -----   slip2010-01-02_dpa4023_1644_d3t03.wav
     8:34.14       90702572    ---   --   -----   slip2010-01-02_dpa4023_1644_d3t04.wav
   155:13.57     1642948232 B                     (totals for 22 files, 1.0000 overall compression ratio)
Show Checksums
ffp
slip2010-01-02_dpa4023_1644_d1t01.flac:5718386d285916860b44162ba3764eb8
slip2010-01-02_dpa4023_1644_d1t02.flac:615d0577e9e2d9a95f3bff271938856b
slip2010-01-02_dpa4023_1644_d1t03.flac:64361e514122a825574851cbb4dcdee6
slip2010-01-02_dpa4023_1644_d1t04.flac:ce3821c605f15553ee491e3714d7a58d
slip2010-01-02_dpa4023_1644_d1t05.flac:4a5c1d1fe8226359d91d76595f593c7f
slip2010-01-02_dpa4023_1644_d1t06.flac:5b4bb56063a42cd0720756fd20ec17a4
slip2010-01-02_dpa4023_1644_d1t07.flac:d65ca1a128404bf66ba744b0578cf7a4
slip2010-01-02_dpa4023_1644_d1t08.flac:af44cdcbe5598fc352e580d3d7f609b9
slip2010-01-02_dpa4023_1644_d1t09.flac:1de3340791948b361e23137e72161d3f
slip2010-01-02_dpa4023_1644_d1t10.flac:005d6235734fe7c546d2e73bc7017387
slip2010-01-02_dpa4023_1644_d2t01.flac:c8bfde0e8336640c6832c3b1417538fd
slip2010-01-02_dpa4023_1644_d2t02.flac:7df649648247a6449091e35941d69d46
slip2010-01-02_dpa4023_1644_d2t03.flac:53cc7be2b63e9af3b372dc85faae15ac
slip2010-01-02_dpa4023_1644_d2t04.flac:62719a3b9859e21f01fc6a60330cbdfb
slip2010-01-02_dpa4023_1644_d2t05.flac:575c1904b514599aef38ffa2e2b4c39b
slip2010-01-02_dpa4023_1644_d2t06.flac:ad9ec15900992c8b040231950ade7eb1
slip2010-01-02_dpa4023_1644_d2t07.flac:fefbc3ed25dbf0115b3f3054f81259fe
slip2010-01-02_dpa4023_1644_d2t08.flac:3a5c1adfbf21017cbec494c122d55fce
slip2010-01-02_dpa4023_1644_d3t01.flac:de6fc9b7d90f7d8815c303df3ab70135
slip2010-01-02_dpa4023_1644_d3t02.flac:82ca0863ac067fafc268945adb3413be
slip2010-01-02_dpa4023_1644_d3t03.flac:5cb2cbc7317b4b3439011a14af83521b
slip2010-01-02_dpa4023_1644_d3t04.flac:5782d10a933430554b9f255cffea4814

Comments
Add Comment
Other Sources (comments)
Four-Track Digital Master... (0) flac24;DPA... (0)
Date User Comment