Browse Collections Artists Sources   Search Dates

Add Show    List Management    Help


Grateful Dead 08/29/83
Silva Hall, Hult Center, Eugene, OR
Comments Add Comment    Source Collectors    Add to Collection    Add to Want List    History
Source # 105523 Other Sources
Entered by dr.unclear
Checksums ffp , flac-md5
Disc Counts 2 / 2
Media Size
Date Circulated
Date Added
01/17/2010
01/17/2010
Source Summary flac16; FOB AUD: Nakamichi CM300's > unknown deck > MAC > 1st Gen tape. Transfer: Maxell XLIIS > Nakamichi DR-2 > Edirol FA-66 > Wavelab > R8Brain > CD-Wave > TLH > FLAC 1644 Tagged. Transfer by Andrew F. 
  Archive
Source Information - Download Text | Download Zip
GRATEFUL DEAD
Silva Hall
Hult Center
Eugene OR
08-29-1983

s1t01 Shakedown Street
s1t02 Minglewood Blues
s1t03 Friend of the Devil
s1t04 Hell in a Bucket
s1t05 Birdsong
s1t06 It's All Over Now
s1t07 Might as Well

s2t01 China Cat Sunflower >
s2t02 I Know You Rider
s2t03 Estimated Prophet >
s2t04 Eyes of the World >
s2t05 Drums >
s2t06 Space >
s2t07 The Wheel >
s2t08 The Other One >
s2t09 Goin' Down the Road >
s2t10 Johnny B. Goode
s2t11 Encore: U.S. Blues

FOB AUD: Nakamichi CM300's > unknown deck > MAC > 1st Gen tape.

Transfer: Maxell XLIIS > Nakamichi DR-2 > Edirol FA-66 > Wavelab >
R8Brain > CD-Wave > TLH > FLAC 1644 Tagged. Transfer by Andrew F.

Notes: Distortion in China>Rider and missing chunk of Estimated
were due to a battery problem. Patches from ID-105285 as follows:
China Cat 0:00 > 0:10, Estimated 0:00 > 4:51, Space 1:56 > 3:19.

CDR buring: D1 s1t01 > s2t02, D2 s2t03 > s2t11.

    length     expanded size    cdr  WAVE problems  fmt   ratio  filename
    13:05.41      138570476 B   ---   --   ---xx   flac  0.6062  gd1983-08-29s1t01.flac
     8:27.54       89561852 B   ---   --   ---xx   flac  0.6066  gd1983-08-29s1t02.flac
     9:38.54      102086252 B   ---   --   ---xx   flac  0.6016  gd1983-08-29s1t03.flac
     5:23.74       57151292 B   ---   --   ---xx   flac  0.6093  gd1983-08-29s1t04.flac
    10:20.01      109370396 B   ---   --   ---xx   flac  0.5905  gd1983-08-29s1t05.flac
     8:56.40       94644524 B   ---   --   ---xx   flac  0.5991  gd1983-08-29s1t06.flac
     4:24.11       46595516 B   ---   --   ---xx   flac  0.6071  gd1983-08-29s1t07.flac
     7:43.15       81708524 B   ---   --   ---xx   flac  0.6181  gd1983-08-29s2t01.flac
     6:08.38       65004620 B   ---   --   ---xx   flac  0.6211  gd1983-08-29s2t02.flac
    13:37.08      144137660 B   ---   --   ---xx   flac  0.5801  gd1983-08-29s2t03.flac
    10:27.54      110729852 B   ---   --   ---xx   flac  0.6184  gd1983-08-29s2t04.flac
    11:49.44      125171132 B   ---   --   ---xx   flac  0.5509  gd1983-08-29s2t05.flac
     7:58.07       84335708 B   ---   --   ---xx   flac  0.5099  gd1983-08-29s2t06.flac
     5:07.14       54187772 B   ---   --   ---xx   flac  0.5948  gd1983-08-29s2t07.flac
     6:40.10       70583564 B   ---   --   ---xx   flac  0.5998  gd1983-08-29s2t08.flac
     7:50.01       82910396 B   ---   --   ---xx   flac  0.5971  gd1983-08-29s2t09.flac
     3:51.37       40835468 B   ---   --   ---xx   flac  0.5993  gd1983-08-29s2t10.flac
     5:12.62       55182668 B   ---   --   ---xx   flac  0.5937  gd1983-08-29s2t11.flac
   146:42.40     1552767672 B                            0.5927  (18 files)

No errors occured.
Show Checksums
ffp
gd1983-08-29s1t01.flac:5712cab7a6b452bf7bd35efc71bced9a
gd1983-08-29s1t02.flac:a90a72c24b3e40b023d3002846434e05
gd1983-08-29s1t03.flac:d5c3c6ab3f361e982514fa515f0870d7
gd1983-08-29s1t04.flac:8ec9a6f1e965b0ae702d1b4f7aff04bc
gd1983-08-29s1t05.flac:0e5e222cf13f2752253c04b041bf7094
gd1983-08-29s1t06.flac:784e9453030c44c31c7eddc40b479033
gd1983-08-29s1t07.flac:8899b33e019eb0e6eb87f4fcfe8665ee
gd1983-08-29s2t01.flac:14c6515b2b6723c626fa6343bafc4323
gd1983-08-29s2t02.flac:c64fa77d03d9f740254da9d83e62a2a8
gd1983-08-29s2t03.flac:94f500231c0c3f59b193e70eac3749cb
gd1983-08-29s2t04.flac:39d71795c7caa70718512635a0573821
gd1983-08-29s2t05.flac:f50170648f758eb6094c50d809495f90
gd1983-08-29s2t06.flac:b31c55d4b5d87447c8be5199631462a6
gd1983-08-29s2t07.flac:453eb2bece12c8d7d9139ca4c5bc6b7f
gd1983-08-29s2t08.flac:2aa36b7f042f04495e54dd4bdf14a612
gd1983-08-29s2t09.flac:6f08792b8d5fdd189e3ed4dd7dfb7135
gd1983-08-29s2t10.flac:419b58f2adf94f4c234a1eda35b74cbe
gd1983-08-29s2t11.flac:5156e19fad2c6ec801854e3913b927b2
flac-md5
7ca7d9b7132a1891d2877c91bc3b03d3 *gd1983-08-29s1t01.flac
d6cbe6f0c00f5b51d63cc55224ebad07 *gd1983-08-29s1t02.flac
04cf05b3b68abfdb293ff48563f11ca8 *gd1983-08-29s1t03.flac
b19ef6ba5a121526e5735cc2b6e07bb1 *gd1983-08-29s1t04.flac
2fa19a4a433246c196c858220f1271b6 *gd1983-08-29s1t05.flac
5a7778c8fa37b637a14f9a092b8642c1 *gd1983-08-29s1t06.flac
c9a402d80960961309e23ac1742e2eaf *gd1983-08-29s1t07.flac
7df72231910005c67689e636694c8597 *gd1983-08-29s2t01.flac
a0cc85acc42ecabe51131244e22ce38c *gd1983-08-29s2t02.flac
40769e47c05e29a01aff4bf1ecd14331 *gd1983-08-29s2t03.flac
262412203ec00c52c83a5702366a11a1 *gd1983-08-29s2t04.flac
5f168d816545628558a53a838921fcbd *gd1983-08-29s2t05.flac
b46c65e24f364555b44a63a2a39baa19 *gd1983-08-29s2t06.flac
6bd027d700f2f0f7d7c03354521bf687 *gd1983-08-29s2t07.flac
592b58afa57d4543527271ea281865fe *gd1983-08-29s2t08.flac
7505f0b73cb64671d88b34e6392bb7d8 *gd1983-08-29s2t09.flac
4dda9f11173e721340c5bad8301f2113 *gd1983-08-29s2t10.flac
ca529c123cfa9dc56bc3960b92a4b6d4 *gd1983-08-29s2t11.flac

Comments
Add Comment
Other Sources (comments)
SBD>Cass(2)>DAT>CDR; Seeded... (0) flac16; Source:... (0) flac16; Source: 2... (0) flac16; Soundboard >... (1) flac16/48kHz;... (0) flac24; Source Info:... (0) flac16; Source Info:... (0) flac16/44.1 ... (0) flac24/48 Source:... (0)
Date User Comment