Browse Collections Artists Sources   Search Dates

Add Show    List Management    Help


Grateful Dead 10/28/79
Cape Cod Coliseum, South Yarmouth, MA
Comments Add Comment    Source Collectors    Add to Collection    Add to Want List    History
Source # 105530 Other Sources
Entered by dr.unclear
Checksums ffp , flac-md5
Disc Counts 2 / 3
Media Size
Date Circulated
Date Added
01/19/2010
01/18/2010
Source Summary flac16; Matrix by Hunter Seamons using Final Cut Pro (SHN & FLAC>AIFF>Final Cut>WAV>FLAC) 
  Archive
Source Information - Download Text | Download Zip
Grateful Dead
Cape Cod Coliseum
South Yarmouth, MA
October 28, 1979

Jerry Garcia - Lead Guitar, Vocals
Mickey Hart - Drums
Bill Kreutzmann - Drums
Phil Lesh - Electric Bass, Vocals
Brent Mydland - Keyboards, Vocals
Bob Weir - Rhythm Guitar, Vocals



*Matrix*


-----------------------------------------------------------------
SBD (shnid=105434):

Recording Info:
SBD -> Master Cassette -> Reel -> Dat

Transfer Info:
Dat (Sony R500) -> Samplitude Professional 10.22 -> Adobe Audition v1.5 -> FLAC
(2 Discs Audio / 2 Discs FLAC)

Transferred and Edited By Charlie Miller
[email protected]
January 10, 2010

[Cuts]
U.S. Blues (4:38 - end of song)
[A small section of Playing]

Notes:
-- This is a re-master of shnid=30655
-- Thanks to Joe B. Jones for his help with the pitch correction

-----------------------------------------------------------------
AUD (shnid=19590):

Source: Sony D5 w/ nak 700's by Steve Rolfe
Lineage: AUDMC > DAT > WAV(48K) > SHN
AUDMC > DAT by David Minor. DAT > WAV transfer by Marc Pujol. SHN encoding by Matt Vernon

[Cuts:]

[A small section of Playing and tape flip at start of Space]

[9/26/03]

-----------------------------------------------------------------
Thank you to Charlie Miller for the SBD transfer,
to Steve Rolfe for recording the show,
and to David Minor, Marc Pujol, and Matt Vernon for the AUD transfer.

Matrix by Hunter Seamons using Final Cut Pro (SHN & FLAC>AIFF>Final Cut>WAV>FLAC)
January 18, 2010



Set I
-----
d1t01 - Tuning
d1t02 - Mississippi Half-Step Uptown Toodeloo ->
d1t03 - Franklin's Tower
d1t04 - Mama Tried ->
d1t05 - Mexicali Blues
d1t06 - Althea
d1t07 - Passenger
d1t08 - Ramble On Rose
d1t09 - The Music Never Stopped

Set II
-----
d2t01 - China Cat Sunflower ->
d2t02 - I Know You Rider
d2t03 - Samson And Delilah
d2t04 - Ship Of Fools
d3t01 - Playing In The Band ->
d3t02 - Drums ->
d3t03 - Space ->
d3t04 - Stella Blue ->
d3t05 - Sugar Magnolia

Encore
------
d3t06 - U.S. Blues



    length     expanded size    cdr  WAVE problems  fmt   ratio  filename
     1:51.03       19587500 B   ---   --   ---xx  gd79-10-28d1t01.flac
    13:28.28      142597100 B   ---   --   ---xx  gd79-10-28d1t02.flac
    19:32.70      206905484 B   ---   --   ---xx  gd79-10-28d1t03.flac
     2:33.02       26993948 B   ---   --   ---xx  gd79-10-28d1t04.flac
     7:02.34       74520812 B   ---   --   ---xx  gd79-10-28d1t05.flac
     9:29.33      100449260 B   ---   --   ---xx  gd79-10-28d1t06.flac
     6:14.05       65985404 B   ---   --   ---xx  gd79-10-28d1t07.flac
     9:28.00      100195244 B   ---   --   ---xx  gd79-10-28d1t08.flac
     9:52.71      104595836 B   ---   --   ---xx  gd79-10-28d1t09.flac
     8:15.59       87456812 B   ---   --   ---xx  gd79-10-28d2t01.flac
    10:16.19      108707132 B   ---   --   ---xx  gd79-10-28d2t02.flac
     9:39.64      102286172 B   ---   --   ---xx  gd79-10-28d2t03.flac
    11:11.10      118387964 B   ---   --   ---xx  gd79-10-28d2t04.flac
    19:14.57      203699708 B   ---   --   ---xx  gd79-10-28d3t01.flac
     5:05.35       53884364 B   ---   --   ---xx  gd79-10-28d3t02.flac
     4:37.48       48975740 B   ---   --   ---xx  gd79-10-28d3t03.flac
     8:25.68       89241980 B   ---   --   ---xx  gd79-10-28d3t04.flac
     8:40.24       91784492 B   ---   --   ---xx  gd79-10-28d3t05.flac
     7:06.28       75212300 B   ---   --   ---xx  gd79-10-28d3t06.flac
   172:05.58     1821467252 B                            0.5553  (19 files)
Show Checksums
ffp
gd79-10-28d1t01.flac:8eb0eeb6a76909cb44d25c3a783bfad2
gd79-10-28d1t02.flac:e2d0e60561d56ced19156ef034158ac6
gd79-10-28d1t03.flac:7189556155dcf72f9655716e687a8458
gd79-10-28d1t04.flac:aaee8ee01f60c5168130bfc6c1948f60
gd79-10-28d1t05.flac:12993f4f6ed780e757d940f73fff8538
gd79-10-28d1t06.flac:8135e395e1f998e5ad8bf81120eee751
gd79-10-28d1t07.flac:dd57c3f40cf408297b624c41d0a178b1
gd79-10-28d1t08.flac:5340ade730fe7026f5f48ff1c5da891d
gd79-10-28d1t09.flac:cc837540094d48ebad0782e6ca0fdd76
gd79-10-28d2t01.flac:8c62bd8a66ebf770fd192826789331d0
gd79-10-28d2t02.flac:9b2c0be29f6d278bcb2a32e46325d4ce
gd79-10-28d2t03.flac:da9f1c6e82a9e9f0abb6acb164822d9f
gd79-10-28d2t04.flac:786c846ffbcd26d513968850d39bf3da
gd79-10-28d3t01.flac:d7e18b1052a54cdf390378b71075ad69
gd79-10-28d3t02.flac:0cf620fed6e6ac6454210361a8646f36
gd79-10-28d3t03.flac:2fbc69fff050289136f08400c42d6875
gd79-10-28d3t04.flac:d9e604c5416154ba192e994654d5f615
gd79-10-28d3t05.flac:5068e68970a42f28a41c3e777d1e1b22
gd79-10-28d3t06.flac:f189cd9072048ca19dd9fa6cc715d794
flac-md5
6ad5422c9b41529a6bb179227832bd2b *gd79-10-28d1t01.flac
1c589e63060339f8217250f3bbdf7d52 *gd79-10-28d1t02.flac
3aa5e9da173a03b2d78a4568b795c93b *gd79-10-28d1t03.flac
e9938b86f3c1cb27e7fe192002fba000 *gd79-10-28d1t04.flac
4d466531919320b6c0922e8bee7aeff5 *gd79-10-28d1t05.flac
d90e49bd7cd70c6f6763c7530549e5a2 *gd79-10-28d1t06.flac
110c70047066ecbd91fde94a11707bbb *gd79-10-28d1t07.flac
2c27ef429aea1399ecd27b4b68a765f1 *gd79-10-28d1t08.flac
94d4844424cad3fb9eb2a3401e843045 *gd79-10-28d1t09.flac
59738b235a712c85e22924604c29378a *gd79-10-28d2t01.flac
728bda1c481d9dfbbd30d8b6f9d61fb7 *gd79-10-28d2t02.flac
90aca5d5efd9e380ca265365cafed1bf *gd79-10-28d2t03.flac
aecd950c658a6a4a4600588e4dcb2424 *gd79-10-28d2t04.flac
e059e3ed601804084f4671003d67925e *gd79-10-28d3t01.flac
ce2b81e2fc860269b12f92cfbd2a6953 *gd79-10-28d3t02.flac
b6cece37fe13e85a71a20c198ad5fb6f *gd79-10-28d3t03.flac
12d77491afa19a634de01ef3ca7e626b *gd79-10-28d3t04.flac
0b5084ac4ed3ec4f870d3d1ca5014358 *gd79-10-28d3t05.flac
ffd98c55a687b71893245297b13cf596 *gd79-10-28d3t06.flac

Comments
Add Comment
Other Sources (comments)
SBD : MC > R > DAT > CDR... (0) Recording by Steve Rolfe:... (0) flac16; SBD ->... (1) flac16; Recording... (0) flac24; AUD: 3x... (0) flac16; AUD: 3x... (0) flac16; Recording... (1)
Date User Comment