Browse Collections Artists Sources   Search Dates

Add Show    List Management    Help


Grateful Dead 06/14/80
Spokane Coliseum, Spokane, WA
Comments Add Comment    Source Collectors    Add to Collection    Add to Want List    History
Source # 105537 Other Sources
Entered by dr.unclear
Checksums flac-md5 , ffp
Disc Counts 0 / 0
Media Size
Date Circulated
Date Added
01/19/2010
01/19/2010
Source Summary flac16; Analog Audience Source: FOB Master Cassettes (MAC) Medium Stock Brands: MAC = 2 x Maxell UDXL-II Analog Lineage: 2 x Nakamichi cm700 >> Sony TC-D5 >> MAC Analog Sound Preservation: MAC >> Nakamichi CR7a => Korg MR-1000 >> DSF [1-bit 5.6448 MHz Stereo] >> Korg MR-1000 => Korg AudioGate >> WAV [24/96] Taped By: Bob Menke Transfer By: Bob Menke Mastering By: Derek McCabe MOTB Release: 0030 16/44.1 
  Archive
Source Information - Download Text | Download Zip
MOTB Release: 0030 16/44.1
Release Date: 2010-01-18
Band: Grateful Dead
Date: 1980-06-14 (Saturday)
Venue: Spokane Coliseum
Location: Spokane, WA
Analog Audience Source: FOB Master Cassettes (MAC)
Medium Stock Brands: MAC = 2 x Maxell UDXL-II
Analog Lineage: 2 x Nakamichi cm700 >> Sony TC-D5  >> MAC
Analog Sound Preservation: MAC >> Nakamichi CR7a => Korg MR-1000 >> DSF [1-bit 5.6448 MHz Stereo] >> Korg MR-1000 => Korg AudioGate >> WAV [24/96]
Taped By: Bob Menke
Transfer By: Bob Menke
Mastering By: Derek McCabe



Set 1:
d1t01: Alabama Getaway >
d1t02: The Promised Land
d1t03: Friend Of The Devil >
d1t04: El Paso
d1t05: Brown Eyed Women
d1t06: Me And My Uncle >
d1t07: Big River
d1t08: Far From Me
d1t09: Big Railroad Blues
d1t10: Looks Like Rain
d1t11: Don't Ease Me In

Set 2:
d2t01: Feel Like A Stranger
d2t02: Ship Of Fools
d2t03: Estimated Prophet >
d2t04: Eyes Of The World >
d2t05: Drums >
d3t01: Space >
d3t02: Lost Sailor >
d3t03: Saint Of Circumstance >
d3t04: Stella Blue >
d3t05: Goin' Down The Road Feelin' Bad >
d3t06: Good Lovin'
~encore~
d3t07: One More Saturday Night

Notes:
The were two cuts in the Menke source. Eldon had a deck patched out of Menke's deck, and they staggered the tape flips.
Seamless patches were applied for the tape flips making this show 100% complete from the same mic source. Nice!


shntool 3.0.4
Copyright (C) 2000-2007 Jason Jordan

   length     expanded size    cdr  WAVE problems  fmt   ratio  filename
    5:34.25       58976444 B   ---   --   ---xx   flac  0.6059  gd1980-06-14.aud.menke.d1t01.flac
    4:24.04       46579052 B   ---   --   ---xx   flac  0.6328  gd1980-06-14.aud.menke.d1t02.flac
    8:30.44       90067532 B   ---   --   ---xx   flac  0.5806  gd1980-06-14.aud.menke.d1t03.flac
    4:41.14       49601372 B   ---   --   ---xx   flac  0.5774  gd1980-06-14.aud.menke.d1t04.flac
    5:31.09       58409612 B   ---   --   ---xx   flac  0.5866  gd1980-06-14.aud.menke.d1t05.flac
    3:20.51       35399996 B   ---   --   ---xx   flac  0.5804  gd1980-06-14.aud.menke.d1t06.flac
    5:59.47       63438188 B   ---   --   ---xx   flac  0.6102  gd1980-06-14.aud.menke.d1t07.flac
    5:37.71       59613836 B   ---   --   ---xx   flac  0.5860  gd1980-06-14.aud.menke.d1t08.flac
    6:02.35       63939164 B   ---   --   ---xx   flac  0.6322  gd1980-06-14.aud.menke.d1t09.flac
    8:12.56       86920556 B   ---   --   ---xx   flac  0.5609  gd1980-06-14.aud.menke.d1t10.flac
    3:59.24       42216092 B   ---   --   ---xx   flac  0.6295  gd1980-06-14.aud.menke.d1t11.flac
   11:18.28      119665100 B   ---   --   ---xx   flac  0.5961  gd1980-06-14.aud.menke.d2t01.flac
   10:11.69      107942732 B   ---   --   ---xx   flac  0.5586  gd1980-06-14.aud.menke.d2t02.flac
   12:25.71      131585036 B   ---   --   ---xx   flac  0.6032  gd1980-06-14.aud.menke.d2t03.flac
    9:59.61      105807116 B   ---   --   ---xx   flac  0.6267  gd1980-06-14.aud.menke.d2t04.flac
    9:07.14       96523772 B   ---   --   ---xx   flac  0.5268  gd1980-06-14.aud.menke.d2t05.flac
    5:05.59       53940812 B   ---   --   ---xx   flac  0.4525  gd1980-06-14.aud.menke.d3t01.flac
    6:15.66       66305276 B   ---   --   ---xx   flac  0.5504  gd1980-06-14.aud.menke.d3t02.flac
    6:06.55       64691804 B   ---   --   ---xx   flac  0.6221  gd1980-06-14.aud.menke.d3t03.flac
    9:27.38      100108220 B   ---   --   ---xx   flac  0.5209  gd1980-06-14.aud.menke.d3t04.flac
    6:58.48       73848140 B   ---   --   ---xx   flac  0.6181  gd1980-06-14.aud.menke.d3t05.flac
    6:45.61       71585516 B   ---   --   ---xx   flac  0.6113  gd1980-06-14.aud.menke.d3t06.flac
    5:20.70       56612684 B   ---   --   ---xx   flac  0.6239  gd1980-06-14.aud.menke.d3t07.flac
  160:58.45     1703778052 B                            0.5849  (23 files)
Show Checksums
flac-md5
9d8a2dcffb0313f09179c12df493cd78 *gd1980-06-14.aud.menke.d1t01.flac
2621176a3df30773deec89be10fc6ef2 *gd1980-06-14.aud.menke.d1t02.flac
b9c374fe09b2765bcceb0778eadec994 *gd1980-06-14.aud.menke.d1t03.flac
b574a96aa4b79e1e19cd3e3296133167 *gd1980-06-14.aud.menke.d1t04.flac
e5997ed7e34c7db0b171ca528cea23b3 *gd1980-06-14.aud.menke.d1t05.flac
9ba29bcf7236cf3624497ba3addf27e9 *gd1980-06-14.aud.menke.d1t06.flac
afbaac7d04fb9c1f50efdaf09a65d821 *gd1980-06-14.aud.menke.d1t07.flac
2efb46198fdf288768ced7c8c5f63673 *gd1980-06-14.aud.menke.d1t08.flac
8f50fe0a33bd67ca6674c739b2d73bcd *gd1980-06-14.aud.menke.d1t09.flac
0b394a466e7cc893876d411b46a08573 *gd1980-06-14.aud.menke.d1t10.flac
7210b7a79ace37946d467c8c9f4e9b35 *gd1980-06-14.aud.menke.d1t11.flac
cf70bb2843c8ebb35549474866014878 *gd1980-06-14.aud.menke.d2t01.flac
73eb5d797ca38834257c914e76f5cd52 *gd1980-06-14.aud.menke.d2t02.flac
763553613f3290fad52f0f9229caa766 *gd1980-06-14.aud.menke.d2t03.flac
7af0484ce95738a4279a8a056cf8c25f *gd1980-06-14.aud.menke.d2t04.flac
20611e4eaf36751c91b24d5b7b7afb64 *gd1980-06-14.aud.menke.d2t05.flac
1faa80c7bd53475895af21ad8783c580 *gd1980-06-14.aud.menke.d3t01.flac
4e6babef621d4c4d7a4754e24ab5c726 *gd1980-06-14.aud.menke.d3t02.flac
c249a313d54ab1b83f1b7c32de87c146 *gd1980-06-14.aud.menke.d3t03.flac
2a5ada55282bda6c59b8456e40ce177f *gd1980-06-14.aud.menke.d3t04.flac
d1749dc77e49432944b1844feb7d4d04 *gd1980-06-14.aud.menke.d3t05.flac
f3932ee9198552f4bc739141091f82aa *gd1980-06-14.aud.menke.d3t06.flac
e5a96bddc1fe054415c6a11df801371a *gd1980-06-14.aud.menke.d3t07.flac
ffp
gd1980-06-14.aud.menke.d1t01.flac:49517e9d34e1621be05b18094ea1d894
gd1980-06-14.aud.menke.d1t02.flac:d1bf1841c2d371537d986df07cee9095
gd1980-06-14.aud.menke.d1t03.flac:ae19c2580460d25ca6531d857387c6e4
gd1980-06-14.aud.menke.d1t04.flac:b6b31d5353045a0f25949e6e63dae481
gd1980-06-14.aud.menke.d1t05.flac:62090c4b42d1e7dd5f2d3ead323b83a6
gd1980-06-14.aud.menke.d1t06.flac:26b3ba52b2c0e981b4e564059b8f3529
gd1980-06-14.aud.menke.d1t07.flac:68f25a20f49e5676d38aae3dab3c65e5
gd1980-06-14.aud.menke.d1t08.flac:2ffd5eabc1c6d0be40d4764b0ee1e4f5
gd1980-06-14.aud.menke.d1t09.flac:2771067c720289f6aabfd9927d180b22
gd1980-06-14.aud.menke.d1t10.flac:5c42e531b47efcb90dcc27866b2517b1
gd1980-06-14.aud.menke.d1t11.flac:89d3a0ec70852bfb3b1797511f173d91
gd1980-06-14.aud.menke.d2t01.flac:a358f37040821d67d25250092ae51240
gd1980-06-14.aud.menke.d2t02.flac:9cb2222b4c246037a541b7897ac59df9
gd1980-06-14.aud.menke.d2t03.flac:5f003408079eb5487673390acff77c11
gd1980-06-14.aud.menke.d2t04.flac:d9dcdf0ad17f3e10d1193ff5029966ee
gd1980-06-14.aud.menke.d2t05.flac:0ee790b3d41a42a77c3ab4423ff86717
gd1980-06-14.aud.menke.d3t01.flac:0b162caa0bcf7bbd5d65244e341a9086
gd1980-06-14.aud.menke.d3t02.flac:d49805211c91883c24c5826e6140690d
gd1980-06-14.aud.menke.d3t03.flac:b951d07cd724e7bab82e347ba32ee419
gd1980-06-14.aud.menke.d3t04.flac:57ff84760deeef7484cffe4a3d54e33a
gd1980-06-14.aud.menke.d3t05.flac:0c4fb2bd27a69f2515b54926b324c093
gd1980-06-14.aud.menke.d3t06.flac:f492570446da623e10c98ca4f97dd47c
gd1980-06-14.aud.menke.d3t07.flac:2784063b93a5b82ccb9c1a939e1d8f87

Comments
Add Comment
Other Sources (comments)
Master Audience Cassette;... (0) flac16; Recorded by... (0) flac16; (FOB) Sony... (0) flac24; (FOB) Sony... (0)
Date User Comment