Browse Collections Artists Sources   Search Dates

Add Show    List Management    Help


Grateful Dead 06/30/79
Portland International Speedway, Portland, OR
Comments Add Comment    Source Collectors    Add to Collection    Add to Want List    History
Source # 105563 Other Sources
Entered by dr.unclear
Checksums flac-md5 , ffp
Disc Counts 0 / 0
Media Size
Date Circulated
Date Added
01/21/2010
01/21/2010
Source Summary flac16; 2 x AKG D224e's >> Sony TC-D5  >> MAC >> Nakamichi CR7a => Korg MR-1000 >> DSF [1-bit 5.6448 MHz Stereo] >> Korg MR-1000 => Korg AudioGate >> WAV [24/96] Taped By: Rheinhart Holwein Transfer By: Bob Menke Mastering By: Derek McCabe 
  Archive
Source Information - Download Text | Download Zip
MOTB Release: 0118 16/44.1
Release Date: 2010-01-21
Band: Grateful Dead
Date: 1979-06-30 (Saturday)
Venue: Portland International Raceway
Location: Portland, OR
Analog Audience Source: FOB Master Cassettes (MAC)
Medium Stock Brands: MAC = 2 x Maxell UDXL-II
Analog Lineage: 2 x AKG D224e's >> Sony TC-D5  >> MAC
Analog Sound Preservation: MAC >> Nakamichi CR7a => Korg MR-1000 >> DSF [1-bit 5.6448 MHz Stereo] >> Korg MR-1000 => Korg AudioGate >> WAV [24/96]
Taped By: Rheinhart Holwein
Transfer By: Bob Menke
Mastering By: Derek McCabe




Set 1:
d1t01: Jack Straw
d1t02: Candyman
d1t03: Me & My Uncle >
d1t04: Big River
d1t05: Tennessee Jed
d1t06: Looks Like Rain
d1t07: Deal

Set 2:
d2t01: I Need A Miracle >
d2t02: Bertha >
d2t03: Good Lovin'
d2t04: Friend Of The Devil
d2t05: Estimated Prophet >
d2t06: He's Gone >
d2t07: Drums >
d3t01: Space >
d3t02: The Other One >
d3t03: Wharf Rat >
d3t04: Sugar Magnolia
~encore~
d3t05: One More Saturday Night


shntool 3.0.4
Copyright (C) 2000-2007 Jason Jordan

    length     expanded size    cdr  WAVE problems  fmt   ratio  filename
     7:09.26       75736796 B   ---   --   ---xx   flac  0.4852  gd1979-06-30.aud.menke.d1t01.flac
     7:53.32       83512508 B   ---   --   ---xx   flac  0.4631  gd1979-06-30.aud.menke.d1t02.flac
     3:04.38       32547020 B   ---   --   ---xx   flac  0.4941  gd1979-06-30.aud.menke.d1t03.flac
     5:30.34       58292012 B   ---   --   ---xx   flac  0.5052  gd1979-06-30.aud.menke.d1t04.flac
     9:03.55       95914604 B   ---   --   ---xx   flac  0.4836  gd1979-06-30.aud.menke.d1t05.flac
    12:30.50      132417644 B   ---   --   ---xx   flac  0.4415  gd1979-06-30.aud.menke.d1t06.flac
     4:50.00       51156044 B   ---   --   ---xx   flac  0.5027  gd1979-06-30.aud.menke.d1t07.flac
     6:52.32       72752108 B   ---   --   ---xx   flac  0.4737  gd1979-06-30.aud.menke.d2t01.flac
     6:39.72       70552988 B   ---   --   ---xx   flac  0.5086  gd1979-06-30.aud.menke.d2t02.flac
     7:29.35       79285964 B   ---   --   ---xx   flac  0.5155  gd1979-06-30.aud.menke.d2t03.flac
     9:12.22       97424588 B   ---   --   ---xx   flac  0.4588  gd1979-06-30.aud.menke.d2t04.flac
    12:49.06      135665756 B   ---   --   ---xx   flac  0.4785  gd1979-06-30.aud.menke.d2t05.flac
    13:53.10      146964764 B   ---   --   ---xx   flac  0.4675  gd1979-06-30.aud.menke.d2t06.flac
    10:57.22      115946588 B   ---   --   ---xx   flac  0.4397  gd1979-06-30.aud.menke.d2t07.flac
     1:49.11       19253516 B   ---   --   ---xx   flac  0.4293  gd1979-06-30.aud.menke.d3t01.flac
     8:50.10       93515564 B   ---   --   ---xx   flac  0.4925  gd1979-06-30.aud.menke.d3t02.flac
     8:50.09       93513212 B   ---   --   ---xx   flac  0.4607  gd1979-06-30.aud.menke.d3t03.flac
     8:53.63       94169420 B   ---   --   ---xx   flac  0.4956  gd1979-06-30.aud.menke.d3t04.flac
     5:39.54       59926652 B   ---   --   ---xx   flac  0.5184  gd1979-06-30.aud.menke.d3t05.flac
   151:58.56     1608547748 B                            0.4769  (19 files)
Show Checksums
flac-md5
5d94e0aa5311e3776acf440dd96d7476 *gd1979-06-30.aud.menke.d1t01.flac
e78e72f2b8be3c3a11311eddb9cc00df *gd1979-06-30.aud.menke.d1t02.flac
455eb90370c6b71c083b4e859248f113 *gd1979-06-30.aud.menke.d1t03.flac
6edc150def31e0c98e376ab31e105bfa *gd1979-06-30.aud.menke.d1t04.flac
e6fcffaec47f72c1d1e96185cf72993e *gd1979-06-30.aud.menke.d1t05.flac
51ed7d4e16e5605d517450e9eae5605c *gd1979-06-30.aud.menke.d1t06.flac
dc2f037200dfa2ee9bd4175e15df35c0 *gd1979-06-30.aud.menke.d1t07.flac
5e72549d53fcd9d06366f43444f155ed *gd1979-06-30.aud.menke.d2t01.flac
17d6af5d8a77b44e8bf8c9b65b2fd4c6 *gd1979-06-30.aud.menke.d2t02.flac
bc0e9584aed357090c0c248887d554e3 *gd1979-06-30.aud.menke.d2t03.flac
419af3d9a07848c391574451c6353a67 *gd1979-06-30.aud.menke.d2t04.flac
7afda0e2f9469ae3471557d878ad1472 *gd1979-06-30.aud.menke.d2t05.flac
f2bae59c6485013e1d7a6d79368ae932 *gd1979-06-30.aud.menke.d2t06.flac
f39727eb9df370d66c02201e56d2f458 *gd1979-06-30.aud.menke.d2t07.flac
74b864c0d5900f785f37f095d4154a22 *gd1979-06-30.aud.menke.d3t01.flac
6cacb47b86e4a40d274332a005b885e9 *gd1979-06-30.aud.menke.d3t02.flac
b5adb068fd80e77075eae43b224f6c94 *gd1979-06-30.aud.menke.d3t03.flac
7ca229d41110928ad3dd92dd632d4af7 *gd1979-06-30.aud.menke.d3t04.flac
dfcd59818c169229ec57353e4a0a59a8 *gd1979-06-30.aud.menke.d3t05.flac
ffp
gd1979-06-30.aud.menke.d1t01.flac:49f5797161ee0b0c5110ba73b73948b9
gd1979-06-30.aud.menke.d1t02.flac:8f32c35d748089474c46a6cec5c04c6a
gd1979-06-30.aud.menke.d1t03.flac:b56a77c9c22f6cc9329ab7ded0657fe1
gd1979-06-30.aud.menke.d1t04.flac:2eb7d0242a5fa63f3beca425fb7d292d
gd1979-06-30.aud.menke.d1t05.flac:ae1fed5ff51e92527e77bdaa4d8a98d0
gd1979-06-30.aud.menke.d1t06.flac:cda92cc58b17828288546a7a398e5c15
gd1979-06-30.aud.menke.d1t07.flac:aa583ec7c9e4e72be1792d2e875d0eb6
gd1979-06-30.aud.menke.d2t01.flac:a1ea2933e530dffd0c2ff72b7c7ecf4b
gd1979-06-30.aud.menke.d2t02.flac:77d6abdf290336c4ccd708ef6c45a11d
gd1979-06-30.aud.menke.d2t03.flac:8151818ccf3b96ce89258b286abc4b6d
gd1979-06-30.aud.menke.d2t04.flac:c0026729e52204da89fbf83be44822e7
gd1979-06-30.aud.menke.d2t05.flac:a67d43f4517d6601db4792668d2a91d7
gd1979-06-30.aud.menke.d2t06.flac:f797569b1a65115c8ef37f10a37e41a5
gd1979-06-30.aud.menke.d2t07.flac:dc7ab2dceaf8aedf78905a6c568ef330
gd1979-06-30.aud.menke.d3t01.flac:16ceeff9167b6e10fb163254248e18e4
gd1979-06-30.aud.menke.d3t02.flac:0f99a5e0710536c2285868a7e6dcc8dc
gd1979-06-30.aud.menke.d3t03.flac:d1a9b53a551ed33f9e20b132afe07c79
gd1979-06-30.aud.menke.d3t04.flac:c5d7d6d5913feb05c84602526ab850c6
gd1979-06-30.aud.menke.d3t05.flac:4590227002989cae4cfda340c9f6053a

Comments
Add Comment
Other Sources (comments)
Senn. 441's>MC>DAT>CD; via... (1) flac16; Recorded by... (0) flac16; Recording... (0)
Date User Comment