Browse Collections Artists Sources   Search Dates

Add Show    List Management    Help


Gov't Mule 04/19/07
Legends, Boone, NC
Comments Add Comment    Source Collectors    Add to Collection    Add to Want List    History
Source # 105591 Other Sources
Entered by
Checksums ffp
Disc Counts 0 / 0
Media Size Compressed: 1.5 GB (1613461560 bytes)
Date Circulated
Date Added
01/16/2010
01/23/2010
Source Summary Source: Schoeps CCM4V'S(din)>Lunatec V2>Sound Devices 722 (24/48)
Location: FOB/DFC/KFC/ZFC/AARP From 35' From Stage, 6 1/2' High
DSP: Sound Devices 722>Sound Forge 9.0>CD Wave>flac(16)
Recorded By: Z-Man
Alternate transfer of shnid 90267 
Source Information - Download Text | Download Zip
Gov't Mule
Legends
Boone, North Carolina
4/19/2007

Source: Schoeps CCM4V'S(din)>Lunatec V2>Sound Devices 722 (24/48)
Location: FOB/DFC/KFC/ZFC/AARP From 35' From Stage, 6 1/2' High
DSP: Sound Devices 722>Sound Forge 9.0>CD Wave>flac(16)
Recorded By: Z-Man
Seeded By: Z-Man

Disc I 1st Set

01 Crowd
02 Grinnin' In Your Face >
03 Bad Little Doggie >
04 Brand New Angel
05 Mr. High And Mighty
06 Game Face >
07 Mountain Jam >
08 Game Face >
09 Don't Step On The Grass, Sam >
10 Mississippi Queen
11 Sco-Mule
12 Banks Of The Deep End
13 Thorazine Shuffle


Disc II 2nd Set

01 Lola Leave Your Light On >
02 Livin' Lovin' Maid
03 Endless Paradise >
04 If Loving You Is Wrong, I Don't Want To Be Right >
05 Endless Parade
06 Like Flies >
07 Drum Solo  
08 When Dove Cry >
09 Beautifully Broken >
10 When Doves Cry >
11 Beautifully Broken >
12 I'm A Ram >
13 Love Me Do >
14 I'm A Ram >
15 Mule
Encore:
16 Crowd
17 Reggae Soulshine

Flac Fingerprint

Gov't Mule Boone 4-19-2007d01t01.flac:4c7e040280a4c03e4098b518396713e4
Gov't Mule Boone 4-19-2007d01t02.flac:ad0dbd916ed7f32e54cf498866ac5fa1
Gov't Mule Boone 4-19-2007d01t03.flac:365ec9715c3deccb7c49f38de519e1bb
Gov't Mule Boone 4-19-2007d01t04.flac:efbcaeef5317878aab9d9e61c001e22c
Gov't Mule Boone 4-19-2007d01t05.flac:b790c78160b1780b0a4f7239027858df
Gov't Mule Boone 4-19-2007d01t06.flac:dc7c7844ff0a9844710d0b2db60a7620
Gov't Mule Boone 4-19-2007d01t07.flac:50737f6f8161fb6a40159820d22c16a8
Gov't Mule Boone 4-19-2007d01t08.flac:f5ad0807f635c7ac5046e53f01d29e72
Gov't Mule Boone 4-19-2007d01t09.flac:c3fa7e1566c5a823b631e1be00cbb1ba
Gov't Mule Boone 4-19-2007d01t10.flac:8934b96f62a3ff97263e69811f918d04
Gov't Mule Boone 4-19-2007d01t11.flac:54c8b9db3b3414062cbb8ab08a395d79
Gov't Mule Boone 4-19-2007d01t12.flac:eb378b12f7f7539fa2787ff83429f8cb
Gov't Mule Boone 4-19-2007d01t13.flac:373b47ee054d4a2cb1957750d4fd55f9
Gov't Mule Boone 4-19-2007d02t01.flac:e253b2c7dfd30011786e1518de79feda
Gov't Mule Boone 4-19-2007d02t02.flac:5d3d8114daf5ebb3ea359c6c3e3175cf
Gov't Mule Boone 4-19-2007d02t03.flac:d0be4de06598b2e7eae3c9cfdc628406
Gov't Mule Boone 4-19-2007d02t04.flac:d86039a25a5587dafabd3111e53770ea
Gov't Mule Boone 4-19-2007d02t05.flac:a6f202a45189d07882f7772fcd152307
Gov't Mule Boone 4-19-2007d02t06.flac:8b5b242fde08a9b99c2f2339c87b0a1b
Gov't Mule Boone 4-19-2007d02t07.flac:f0e6e06e11e0449b0a687fb52bb904ac
Gov't Mule Boone 4-19-2007d02t08.flac:8f5d30c47e14385e69eaf817aae0c5bf
Gov't Mule Boone 4-19-2007d02t09.flac:e40ff8a4c188f7afa6cbc69a944e5aaa
Gov't Mule Boone 4-19-2007d02t10.flac:30967c1ba09f277929fb7080ec665e01
Gov't Mule Boone 4-19-2007d02t11.flac:1619cb3a91c268ce6be9f36b5c5cd108
Gov't Mule Boone 4-19-2007d02t12.flac:b90761ffb1a39e38df2be75174d8f030
Gov't Mule Boone 4-19-2007d02t13.flac:f23ca79e9601b58cc8f446c240fa4e4b
Gov't Mule Boone 4-19-2007d02t14.flac:5f778a87b0c79bc51d1a2f9b2b17dace
Gov't Mule Boone 4-19-2007d02t15.flac:165593c40bc926590ac645524f9595fc
Gov't Mule Boone 4-19-2007d02t16.flac:a71e7405a6adca2b732d191a4b35cf6c
Gov't Mule Boone 4-19-2007d02t17.flac:32261e69f83573415eb5ee08cf477ed3

Shntool

    length     expanded size    cdr  WAVE problems  fmt   ratio  filename
     1:08.48       12108140 B   ---   --   ---xx   flac  0.4188  Gov't Mule Boone 4-19-2007d01t01.flac
     1:54.72       20278988 B   ---   --   ---xx   flac  0.4277  Gov't Mule Boone 4-19-2007d01t02.flac
     3:47.49       40158092 B   ---   --   ---xx   flac  0.5638  Gov't Mule Boone 4-19-2007d01t03.flac
     6:47.61       71938316 B   ---   --   ---xx   flac  0.5947  Gov't Mule Boone 4-19-2007d01t04.flac
     5:24.73       57325340 B   ---   --   ---xx   flac  0.5920  Gov't Mule Boone 4-19-2007d01t05.flac
     7:00.13       74118620 B   ---   --   ---xx   flac  0.5516  Gov't Mule Boone 4-19-2007d01t06.flac
     4:12.18       44495180 B   ---   --   ---xx   flac  0.5806  Gov't Mule Boone 4-19-2007d01t07.flac
     4:11.09       44297612 B   ---   --   ---xx   flac  0.5684  Gov't Mule Boone 4-19-2007d01t08.flac
     5:41.25       60211244 B   ---   --   ---xx   flac  0.5560  Gov't Mule Boone 4-19-2007d01t09.flac
     3:04.32       32532908 B   ---   --   ---xx   flac  0.5647  Gov't Mule Boone 4-19-2007d01t10.flac
    11:00.47      116534588 B   ---   --   ---xx   flac  0.5451  Gov't Mule Boone 4-19-2007d01t11.flac
     6:29.10       68643164 B   ---   --   ---xx   flac  0.5356  Gov't Mule Boone 4-19-2007d01t12.flac
    12:40.50      134181644 B   ---   --   ---xx   flac  0.5128  Gov't Mule Boone 4-19-2007d01t13.flac
     6:28.21       68492636 B   ---   --   ---xx   flac  0.5418  Gov't Mule Boone 4-19-2007d02t01.flac
     3:21.08       35475260 B   ---   --   ---xx   flac  0.5676  Gov't Mule Boone 4-19-2007d02t02.flac
     9:47.19      103591532 B   ---   --   ---xx   flac  0.4916  Gov't Mule Boone 4-19-2007d02t03.flac
     0:25.74        4584092 B   ---   --   ---xx   flac  0.4612  Gov't Mule Boone 4-19-2007d02t04.flac
     2:12.46       23393036 B   ---   --   ---xx   flac  0.4252  Gov't Mule Boone 4-19-2007d02t05.flac
     6:00.30       63574604 B   ---   --   ---xx   flac  0.5084  Gov't Mule Boone 4-19-2007d02t06.flac
    10:40.67      113053628 B   ---   --   ---xx   flac  0.5071  Gov't Mule Boone 4-19-2007d02t07.flac
     1:36.69       17096732 B   ---   --   ---xx   flac  0.4215  Gov't Mule Boone 4-19-2007d02t08.flac
     4:07.31       43643756 B   ---   --   ---xx   flac  0.5111  Gov't Mule Boone 4-19-2007d02t09.flac
     1:17.49       13698092 B   ---   --   ---xx   flac  0.4693  Gov't Mule Boone 4-19-2007d02t10.flac
     2:38.55       28000604 B   ---   --   ---xx   flac  0.5574  Gov't Mule Boone 4-19-2007d02t11.flac
     7:30.57       79514108 B   ---   --   ---xx   flac  0.5210  Gov't Mule Boone 4-19-2007d02t12.flac
     1:37.21       17160236 B   ---   --   ---xx   flac  0.5351  Gov't Mule Boone 4-19-2007d02t13.flac
     2:04.04       21883052 B   ---   --   ---xx   flac  0.5504  Gov't Mule Boone 4-19-2007d02t14.flac
     9:21.20       99007484 B   ---   --   ---xx   flac  0.5452  Gov't Mule Boone 4-19-2007d02t15.flac
     0:36.27        6413948 B   ---   --   ---xx   flac  0.4670  Gov't Mule Boone 4-19-2007d02t16.flac
     9:15.65       98054924 B   ---   --   ---xx   flac  0.5391  Gov't Mule Boone 4-19-2007d02t17.flac
   152:26.45     1613461560 B                            0.5329  (30 files)
Show Checksums
ffp
Gov't Mule Boone 4-19-2007d01t01.flac:4c7e040280a4c03e4098b518396713e4
Gov't Mule Boone 4-19-2007d01t02.flac:ad0dbd916ed7f32e54cf498866ac5fa1
Gov't Mule Boone 4-19-2007d01t03.flac:365ec9715c3deccb7c49f38de519e1bb
Gov't Mule Boone 4-19-2007d01t04.flac:efbcaeef5317878aab9d9e61c001e22c
Gov't Mule Boone 4-19-2007d01t05.flac:b790c78160b1780b0a4f7239027858df
Gov't Mule Boone 4-19-2007d01t06.flac:dc7c7844ff0a9844710d0b2db60a7620
Gov't Mule Boone 4-19-2007d01t07.flac:50737f6f8161fb6a40159820d22c16a8
Gov't Mule Boone 4-19-2007d01t08.flac:f5ad0807f635c7ac5046e53f01d29e72
Gov't Mule Boone 4-19-2007d01t09.flac:c3fa7e1566c5a823b631e1be00cbb1ba
Gov't Mule Boone 4-19-2007d01t10.flac:8934b96f62a3ff97263e69811f918d04
Gov't Mule Boone 4-19-2007d01t11.flac:54c8b9db3b3414062cbb8ab08a395d79
Gov't Mule Boone 4-19-2007d01t12.flac:eb378b12f7f7539fa2787ff83429f8cb
Gov't Mule Boone 4-19-2007d01t13.flac:373b47ee054d4a2cb1957750d4fd55f9
Gov't Mule Boone 4-19-2007d02t01.flac:e253b2c7dfd30011786e1518de79feda
Gov't Mule Boone 4-19-2007d02t02.flac:5d3d8114daf5ebb3ea359c6c3e3175cf
Gov't Mule Boone 4-19-2007d02t03.flac:d0be4de06598b2e7eae3c9cfdc628406
Gov't Mule Boone 4-19-2007d02t04.flac:d86039a25a5587dafabd3111e53770ea
Gov't Mule Boone 4-19-2007d02t05.flac:a6f202a45189d07882f7772fcd152307
Gov't Mule Boone 4-19-2007d02t06.flac:8b5b242fde08a9b99c2f2339c87b0a1b
Gov't Mule Boone 4-19-2007d02t07.flac:f0e6e06e11e0449b0a687fb52bb904ac
Gov't Mule Boone 4-19-2007d02t08.flac:8f5d30c47e14385e69eaf817aae0c5bf
Gov't Mule Boone 4-19-2007d02t09.flac:e40ff8a4c188f7afa6cbc69a944e5aaa
Gov't Mule Boone 4-19-2007d02t10.flac:30967c1ba09f277929fb7080ec665e01
Gov't Mule Boone 4-19-2007d02t11.flac:1619cb3a91c268ce6be9f36b5c5cd108
Gov't Mule Boone 4-19-2007d02t12.flac:b90761ffb1a39e38df2be75174d8f030
Gov't Mule Boone 4-19-2007d02t13.flac:f23ca79e9601b58cc8f446c240fa4e4b
Gov't Mule Boone 4-19-2007d02t14.flac:5f778a87b0c79bc51d1a2f9b2b17dace
Gov't Mule Boone 4-19-2007d02t15.flac:165593c40bc926590ac645524f9595fc
Gov't Mule Boone 4-19-2007d02t16.flac:a71e7405a6adca2b732d191a4b35cf6c
Gov't Mule Boone 4-19-2007d02t17.flac:32261e69f83573415eb5ee08cf477ed3

Comments
Add Comment
Other Sources (comments)
Source: Schoeps... (0)
Date User Comment