Browse Collections Artists Sources   Search Dates

Add Show    List Management    Help


Grateful Dead 02/17/79
Oakland-Alameda County Coliseum, Oakland, CA
Comments Add Comment    Source Collectors    Add to Collection    Add to Want List    History
Source # 105606 Other Sources
Entered by Matt Vernon
Checksums ffp , flac-md5
Disc Counts 2 / 3
Media Size
Date Circulated
Date Added
01/23/2010
01/23/2010
Source Summary flac16; SBD -> Master Reel -> ? -> Dat -> CD Transfer Info: CD -> Samplitude Professional v9.02 -> FLAC - pitch correction and patches by Kevin Tobin (update of source ID 88123)  
  Archive
Source Information - Download Text | Download Zip
Grateful Dead
February 17, 1979
Oakland Coliseum
Oakland, CA

Rock For Life Benefit to End Environmental Cancer.

Keith and Donna's Last Show.

Patched and pitch corrected Soundboard

Set 1:
d1t01 - Greatest Story Ever Told
d1t02 - Don't Ease Me In
d1t03 - Mama Tried ->
d1t04 - Mexicali Blues
d1t05 - Friend Of The Devil
d1t06 - Passenger
d1t07 - High Time
d1t08 - Looks Like Rain
d1t09 - Jack-A-Roe
d1t10 - Lazy Lightnin' ->
d1t11 - Supplication

Set 2:
d2t01 - Might As Well
d2t02 - I Need A Miracle ->
d2t03 - Bertha ->
d2t04 - Good Lovin'
d2t05 - From The Heart Of Me
d2t06 - Big Railroad Blues
d2t07 - Terrapin Station ->
d2t08 - Playing In The Band ->
d3t01 - Drums ->
d3t02 - The Wheel ->
d3t03 - Shakedown Street ->
d3t04 - Playing In The Band ->
d3t05 - Sugar Magnolia

Encore:
d3t06 - One More Saturday Night

Audio Source Information
SBD (shnid=88123)

Recording Info:
SBD -> Master Reel -> ? -> Dat -> CD

Transfer Info:
CD -> Samplitude Professional v9.02 -> FLAC
(3 Discs Audio / 2 Discs FLAC)

All Transfers and Mastering By Charlie Miller
[email protected]
September 13, 2006
Notes:
-- Set 2 disc change is seamless
-- Discs were labeled Master Reel, but I strongly doubt it
-- Thanks to Paul Scotton for the discs

AUD Patches supplied by (shnid=105291)
MOTB Release: 0110 24/96
Release Date: 2010-01-02
Band: Grateful Dead
Date: 1979-02-17 (Saturday)
Venue: Oakland-Alameda County Coliseum
Location: Oakland, CA
Analog Audience Source: FOB Master Cassettes (MAC)
Medium Stock Brands: MAC = 2 x Maxell UDXL-II
Analog Lineage: 2 x AKG D224E >> Sony TC-158SD >> MAC
Analog Sound Preservation: MAC >> Nakamichi CR7a => Korg MR-1000 >> DSF [1-bit 5.6448 MHz Stereo] >> Korg MR-1000 => Korg AudioGate >> WAV [24/96]
Taped By: Bob Menke
Transfer By: Bob Menke
Mastering By: Derek McCabe

---------------------------------------------------------
- Mixed by [email protected]
- FLAC conversion 23-JAN-2010
---------------------------------------------------------
Audio Patches:

1) Between Greatest Story Ever Told and Don't Ease Me In, 53.241 seconds were missing from the Soundboard source and was filled in with audio from the Audience source.

2) Between Looks Like Rain and Jack-A-Roe, 1 minute and 45.630 seconds were missing from the Soundboard source and was filled in with audio from the Audience source. This includes the last minute of Looks Like Rain.

3) Between Jack-A-Roe and Lazy Lightning, 36.034 seconds were missing from the Soundboard source and was filled in with audio from the Audience source.

4) Between Might As Well and I Need A Miracle, 32.068 seconds were missing from the Soundboard source and was filled in with audio from the Audience source.

5) Also between Might As Well and I Need A Miracle, 26.892 seconds were missing from the Soundboard source and was filled in with audio from the Audience source.

6) Between Good Lovin' and From The Heart Of Me, 13.223 seconds were missing from the Soundboard source and was filled in with audio from the Audience source.

7) Between From The Heart Of Me and Big Railroad Blues, 11.046 seconds were missing from the Soundboard source and was filled in with audio from the Audience source.

8) Between Big Railroad Blues and Terrapin Station, 26.142 seconds were missing from the Soundboard source and was filled in with audio from the Audience source.

9) About 11 minutes into Terrapin Station, 31.658 seconds were missing from the Soundboard source and was filled in with audio from the Audience source.

10) About 1 minutes into Drums, 1 minute and 59.461 seconds were missing from the Soundboard source and was filled in with audio from the Audience source.

11) Between Wheel and Shakedown Street, 06.704 seconds were missing from the Soundboard source and was filled in with audio from the Audience source.

12) About 3 minutes into Playin' in the Band (Reprise), 2 minutes and 57.814 seconds were missing from the Soundboard source and was filled in with audio from the Audience source.

13) Between Sugar Magnolia and One More Saturday Night, 1 minute and 47.778 seconds were missing from the Soundboard source and was filled in with audio from the Audience source.

14) Also between Sugar Magnolia and One More Saturday Night, 12.332 seconds were missing from the Soundboard source and was filled in with audio from the Audience source.

15) Note: There was no real space even though other sets lists have it listed - between Phil's 1st note after returning and the start of the Wheel was a 30 introdcution to the Wheel so I left it as such.

16) NOTE: The MOTB Audience came in 24/96 format and the Soundboard came as 16/44 format. Using R8brain Pro, the Soundboard was expanded to 26/96. After matrix was mixed and soundboard was patched, R8Brain Pro was used to reduce matrix and soundboard to cd compatible 16/44.

17) Matrix\DTS and Soundboard were synced using the Audience as a reference.

Brokedown House Production

    length     expanded size    cdr  WAVE problems  fmt   ratio  filename
     5:59.17       63367628 B   ---   --   -----    wav  1.0000  gd1979-02-17d1t01.wav
     4:53.48       51798140 B   ---   --   -----    wav  1.0000  gd1979-02-17d1t02.wav
     2:30.06       26474156 B   ---   --   -----    wav  1.0000  gd1979-02-17d1t03.wav
     4:51.14       51365372 B   ---   --   -----    wav  1.0000  gd1979-02-17d1t04.wav
    10:13.45      108239084 B   ---   --   -----    wav  1.0000  gd1979-02-17d1t05.wav
     6:23.53       67685900 B   ---   --   -----    wav  1.0000  gd1979-02-17d1t06.wav
     6:41.17       70776428 B   ---   --   -----    wav  1.0000  gd1979-02-17d1t07.wav
     9:14.66       97880876 B   ---   --   -----    wav  1.0000  gd1979-02-17d1t08.wav
     6:29.43       68720780 B   ---   --   -----    wav  1.0000  gd1979-02-17d1t09.wav
     3:25.07       36178508 B   ---   --   -----    wav  1.0000  gd1979-02-17d1t10.wav
     5:28.56       57990956 B   ---   --   -----    wav  1.0000  gd1979-02-17d1t11.wav
     6:55.41       73302476 B   ---   --   -----    wav  1.0000  gd1979-02-17d2t01.wav
     4:53.05       51697004 B   ---   --   -----    wav  1.0000  gd1979-02-17d2t02.wav
     7:02.57       74574908 B   ---   --   -----    wav  1.0000  gd1979-02-17d2t03.wav
     8:03.00       85201244 B   ---   --   -----    wav  1.0000  gd1979-02-17d2t04.wav
     3:53.26       41162396 B   ---   --   -----    wav  1.0000  gd1979-02-17d2t05.wav
     5:02.20       53319884 B   ---   --   -----    wav  1.0000  gd1979-02-17d2t06.wav
    12:35.52      133304348 B   ---   --   -----    wav  1.0000  gd1979-02-17d2t07.wav
    15:03.11      159315116 B   ---   --   -----    wav  1.0000  gd1979-02-17d2t08.wav
    10:42.73      113420540 B   ---   --   -----    wav  1.0000  gd1979-02-17d3t01.wav
     6:44.10       71289164 B   ---   --   -----    wav  1.0000  gd1979-02-17d3t02.wav
    12:41.70      134405084 B   ---   --   -----    wav  1.0000  gd1979-02-17d3t03.wav
    10:31.59      111447212 B   ---   --   -----    wav  1.0000  gd1979-02-17d3t04.wav
    11:22.68      120464780 B   ---   --   -----    wav  1.0000  gd1979-02-17d3t05.wav
     4:43.53       50045900 B   ---   --   -----    wav  1.0000  gd1979-02-17d3t06.wav
   186:27.17     1973427884 B                            1.0000  (25 files)

Show Checksums
ffp
gd1979-02-17d1t01.flac:2a3acb331811939bec9bbf357f286785
gd1979-02-17d1t02.flac:b23d84712d339a1cd330a73ac701103c
gd1979-02-17d1t03.flac:acf4044a957dac85217ffaed3382651e
gd1979-02-17d1t04.flac:bc1993d37da41cb06f8dcee4fe3a159a
gd1979-02-17d1t05.flac:505d1c8bcc4117978a5b998dd6fdf36c
gd1979-02-17d1t06.flac:e115e4f53fef2d2389e037e533ee19f4
gd1979-02-17d1t07.flac:58a42faa2214a6f11c0ed5c2d9462e9f
gd1979-02-17d1t08.flac:95dbf85bd148c1236b11f19e109bff34
gd1979-02-17d1t09.flac:80f0a02c1fecb635ef23382c966b0912
gd1979-02-17d1t10.flac:48d8a9b179a3d0ffa5c8c0d98ed18574
gd1979-02-17d1t11.flac:9adc35f730d24206d446a1d01f4450b1
gd1979-02-17d2t01.flac:46655ee7d43215a12946ca1a1b2ddd87
gd1979-02-17d2t02.flac:526f7ee55ff57dabdb8f432875f6eab8
gd1979-02-17d2t03.flac:d9898c335e2d1a830df22d92f153a866
gd1979-02-17d2t04.flac:c1df523d44d0a6d40144af523d018117
gd1979-02-17d2t05.flac:2e4d2eeea6c39e968ccdf68a418c27ee
gd1979-02-17d2t06.flac:c061a14fad6eacf969e94aba5a3d35a8
gd1979-02-17d2t07.flac:7dd8911def48b89a36bf2eeec058fdbc
gd1979-02-17d2t08.flac:d261a180dbe1970cb8c743609f0fa25c
gd1979-02-17d3t01.flac:f6a5799910c4296e8a76ce3a2e35c84f
gd1979-02-17d3t02.flac:76e556445795f333092bab873363436f
gd1979-02-17d3t03.flac:4f6998af3de39fa6d64b836fe4d3c78e
gd1979-02-17d3t04.flac:df175b0f1f03caaae4484e50f2061d29
gd1979-02-17d3t05.flac:4c06db93b92606f6e61bc85904324f53
gd1979-02-17d3t06.flac:ff9dc4da7b7379894bf54f51ed39c307
flac-md5
7308d5eeec2398ea228a8c35811646cf *gd1979-02-17d1t01.flac
1d46a3f4f5ed316e71605014c91f9472 *gd1979-02-17d1t02.flac
387de4ed7916f5ea17bd6acef2208ba0 *gd1979-02-17d1t03.flac
d4ad5f85c21da476ec808edacbee4699 *gd1979-02-17d1t04.flac
d7f078b27ac819ad1fa2a84083455fb7 *gd1979-02-17d1t05.flac
0d6b393fd46f16e9184182f59051b8ca *gd1979-02-17d1t06.flac
82454b973fe28d8d0b09722ac368fbaa *gd1979-02-17d1t07.flac
d4fddd491db3eec22cb8ed767831aef7 *gd1979-02-17d1t08.flac
5b518e0478d752f502490ec85c88f57b *gd1979-02-17d1t09.flac
b3477f231c5af4bef562b30732010edc *gd1979-02-17d1t10.flac
c1d0f1ef01b4364ab258478219086032 *gd1979-02-17d1t11.flac
9131eab2f84f4e5510b3d7b405a15ae9 *gd1979-02-17d2t01.flac
58069e5e5723f26efcb9d7d02982dc44 *gd1979-02-17d2t02.flac
b60c98766dcdce657464ec665d5090de *gd1979-02-17d2t03.flac
5d4bfc89abbd6a01175636078efa5717 *gd1979-02-17d2t04.flac
510e2cb8a58dcd6dc82c016f5a811e67 *gd1979-02-17d2t05.flac
3eddf11dc53e423b5631e5837cadbaab *gd1979-02-17d2t06.flac
c272d068b67a7ce5b69965b32088e4c2 *gd1979-02-17d2t07.flac
c697d86b69cdbf5be08ceee3a2b1db2d *gd1979-02-17d2t08.flac
0add6f20f1dd62af80230d09068705bf *gd1979-02-17d3t01.flac
8b1a61fc2096d41adcda797f06769b53 *gd1979-02-17d3t02.flac
69c06232f350ec195d799bac9d1eb125 *gd1979-02-17d3t03.flac
eac38c26963635387c183662d0e2051a *gd1979-02-17d3t04.flac
640cf7872fe2d9a9fd68bc3dc84e328e *gd1979-02-17d3t05.flac
d4baaadee65d626cde3bfbfe100ab2e2 *gd1979-02-17d3t06.flac

Comments
Add Comment
Other Sources (comments)
SBD > Reel > DAT > TB Fiji... (5) flac16; Recording... (2) flac16; Analog... (0) flac16; DTS-Audio-CD... (0) flac16; Matrix 2... (0)
Date User Comment