Browse Collections Artists Sources   Search Dates

Add Show    List Management    Help


Jerry Garcia Band 02/02/80
The Stone, San Francisco, CA
Comments Add Comment    Source Collectors    Add to Collection    Add to Want List    History
Source # 105635 Other Sources
Entered by Joe Jupille
Checksums md5 , ffp
Disc Counts 0 / 0
Media Size
Date Circulated
Date Added
01/25/2010
01/26/2010
Source Summary flac1644Bob Menke' s2 x Nak cm700's >> Sony TC-D5 >> MAC>> Nakamichi CR7a => Korg MR-1000 >> DSF [1-bit 5.6448 MHz Stereo] >> Korg MR-1000 => Korg AudioGate >> WAV [24/96] ... 
Source Information - Download Text | Download Zip
MOTB Release: 0038 16/44.1
Release Date: 2010-01-26
Band: Jerry Garcia Band
Date: 1980-02-02 (Friday)
Venue: The Stone
Location: San Francisco, CA
Analog Audience Source: FOB Master Cassettes (MAC)
Medium Stock Brands: MAC = 2 x Maxell UDXL-II
Analog Lineage: 2 x Nak cm700's >> Sony TC-D5  >> MAC
Analog Sound Preservation: MAC >> Nakamichi CR7a => Korg MR-1000 >> DSF [1-bit 5.6448 MHz Stereo] >> Korg MR-1000 => Korg AudioGate >> WAV [24/96]
Taped By: Bob Menke
Transfer By: Bob Menke
Mastering By: Derek McCabe



Set 1:
d1t01: It Takes A Lot To Laugh, It Takes A Train To Cry
d1t02: They Love Each Other
d1t03: Money Honey
d1t04: Sitting In Limbo
d1t05: That's All Right, Mama

Set 2:
d2t01: Harder They Come
d2t02: When I Paint My Masterpiece
d2t03: Russian Lullaby
d2t04: After Midnight >
d2t05: Eleanor Rigby Jam >
d2t06: After Midnight


Notes: Patch source Nak300's > Sony 158 > MAC (Maxell UD XLII)
      Tape flip at the end of "Sittin in Limbo"
      Tape flip in Eleaner Rigby Jam



shntool 3.0.4
Copyright (C) 2000-2007 Jason Jordan

   length     expanded size    cdr  WAVE problems  fmt   ratio  filename
    8:31.02       90145148 B   ---   --   ---xx   flac  0.5905  jg1980-02-02.jgb.fob.menke.d1t01.flac
    9:57.72      105480188 B   ---   --   ---xx   flac  0.5748  jg1980-02-02.jgb.fob.menke.d1t02.flac
    8:33.47       90603788 B   ---   --   ---xx   flac  0.5961  jg1980-02-02.jgb.fob.menke.d1t03.flac
   13:26.01      142180796 B   ---   --   ---xx   flac  0.5544  jg1980-02-02.jgb.fob.menke.d1t04.flac
    8:46.66       92941676 B   ---   --   ---xx   flac  0.6408  jg1980-02-02.jgb.fob.menke.d1t05.flac
   18:00.26      190573196 B   ---   --   ---xx   flac  0.5858  jg1980-02-02.jgb.fob.menke.d2t01.flac
   14:07.09      149432012 B   ---   --   ---xx   flac  0.6125  jg1980-02-02.jgb.fob.menke.d2t02.flac
   15:17.11      161784716 B   ---   --   ---xx   flac  0.5251  jg1980-02-02.jgb.fob.menke.d2t03.flac
   15:39.43      165740780 B   ---   --   ---xx   flac  0.5883  jg1980-02-02.jgb.fob.menke.d2t04.flac
    4:27.66       47254076 B   ---   --   ---xx   flac  0.5674  jg1980-02-02.jgb.fob.menke.d2t05.flac
    5:00.43       53021180 B   ---   --   ---xx   flac  0.6342  jg1980-02-02.jgb.fob.menke.d2t06.flac
  121:48.11     1289157556 B                            0.5836  (11 files)

Show Checksums
md5
94e922c0aca43417e0d5752e464ae99a *jg1980-02-02.jgb.fob.menke.d1t01.flac
c4619886358cdd64a162f5f5611cbb28 *jg1980-02-02.jgb.fob.menke.d1t02.flac
71bdb47bafdabf8480d0570e2832b36f *jg1980-02-02.jgb.fob.menke.d1t03.flac
ac848dcebf153913b8db221626e71a84 *jg1980-02-02.jgb.fob.menke.d1t04.flac
6dfdc9b2b508cf9d19767b55a2efcc87 *jg1980-02-02.jgb.fob.menke.d1t05.flac
383719948b9a9856d978007e24d2ec08 *jg1980-02-02.jgb.fob.menke.d2t01.flac
fba5a5e291ce3ae97c077720b2ec665d *jg1980-02-02.jgb.fob.menke.d2t02.flac
fdfe51adda43b75201da28934e430268 *jg1980-02-02.jgb.fob.menke.d2t03.flac
f4942a2f9f47aa64ea770d7ce6367da1 *jg1980-02-02.jgb.fob.menke.d2t04.flac
0dcbd8b478dd9796a992aa265f96651d *jg1980-02-02.jgb.fob.menke.d2t05.flac
55a74257c7c2f66aa53cf01eecd634be *jg1980-02-02.jgb.fob.menke.d2t06.flac
ffp
jg1980-02-02.jgb.fob.menke.d1t01.flac:896d925b5b35b30ce62d3964a9d6ac69
jg1980-02-02.jgb.fob.menke.d1t02.flac:4611aa43843a31affd5b422f88021186
jg1980-02-02.jgb.fob.menke.d1t03.flac:122027167d2128229121189395dd4cfb
jg1980-02-02.jgb.fob.menke.d1t04.flac:68952d3c6c92d7b71c64804c26b1e17f
jg1980-02-02.jgb.fob.menke.d1t05.flac:3a51255b907c3d2eb43e4fea2eaf6a79
jg1980-02-02.jgb.fob.menke.d2t01.flac:3c8fa90a373400ef5f2efd9b505c6e94
jg1980-02-02.jgb.fob.menke.d2t02.flac:a6713621c826fe3bd52f3610a8f0053d
jg1980-02-02.jgb.fob.menke.d2t03.flac:6247808753207d7063db02580f4e1517
jg1980-02-02.jgb.fob.menke.d2t04.flac:6356b0b65282d4e7e4c623e54ad63f4a
jg1980-02-02.jgb.fob.menke.d2t05.flac:9ebe269b5cde3751bb8bce6ddf0894fa
jg1980-02-02.jgb.fob.menke.d2t06.flac:0f43bec59fd30906600e33e4786d4dfa

Comments
Add Comment
Other Sources (comments)
JGB: Eldon Porray's FOB MAC... (0)
Date User Comment