Browse Collections Artists Sources   Search Dates

Add Show    List Management    Help


Outformation 04/15/09
House of Blues - Restaurant, Orlando, FL
Comments Add Comment    Source Collectors    Add to Collection    Add to Want List    History
Source # 105716 Other Sources
Entered by
Checksums ffp
Disc Counts 0 / 0
Media Size Compressed: 1.04 GB (1121606088 bytes)
Date Circulated
Date Added
05/23/09
01/28/2010
Source Summary source: Schoeps mk41v(AB) > kc5 > m222 > nt222 + mk21(nos) > kcy > vms5u > 744t (24/48)
location: fob/dfc
dsp: 744t > wavelab5 > cdwave > wavelab5 > flac(8)
recorded & seeded: Charles Fox 
Source Information - Download Text | Download Zip
Outformation
House of Blues - Restaurant
Orlando, FL
2009-04-15

source: Schoeps mk41v(AB) > kc5 > m222 > nt222 + mk21(nos) > kcy > vms5u > 744t (24/48)
location: fob/dfc
dsp: 744t > wavelab5 > cdwave > wavelab5 > flac(8)
recorded & seeded: Charles Fox

set 0 disc 1
01 Jam >
02 Valley Blue
03 Carnac
04 On Yer Mind
05 Funk Jam
06 Titles
07 Tennessee Before Daylight
08 24 Hours At A Time >
09 Untitled Lee Song
10 Cant Change the Past
11 Fastburn
12 Camper >
13 Faded Memory

set 0 disc 2
01 One More Time
02 The Moral Deline
03 Will the Circle Be Unbroken
04 Cry In Your Beer
05 Titles


shntool
    length     expanded size   cdr  WAVE problems filename
     3:58.26       42044396    ---   --   ---xx   out2009-04-15d1t01.flac
     3:07.48       33099740    ---   --   ---xx   out2009-04-15d1t02.flac
    11:08.44      117938732    ---   --   ---xx   out2009-04-15d1t03.flac
     5:35.66       59249276    ---   --   ---xx   out2009-04-15d1t04.flac
     1:48.61       19194716    ---   --   ---xx   out2009-04-15d1t05.flac
     5:30.53       58336700    ---   --   ---xx   out2009-04-15d1t06.flac
     8:34.39       90761372    ---   --   ---xx   out2009-04-15d1t07.flac
     8:54.13       94228220    ---   --   ---xx   out2009-04-15d1t08.flac
     3:01.64       32078972    ---   --   ---xx   out2009-04-15d1t09.flac
     8:22.74       88726892    ---   --   ---xx   out2009-04-15d1t10.flac
     8:45.63       92758220    ---   --   ---xx   out2009-04-15d1t11.flac
     2:56.53       31171100    ---   --   ---xx   out2009-04-15d1t12.flac
     6:38.69       70369532    ---   --   ---xx   out2009-04-15d1t13.flac
     5:09.20       54554684    ---   --   ---xx   out2009-04-15d2t01.flac
     6:41.61       70879916    ---   --   ---xx   out2009-04-15d2t02.flac
     7:12.25       76263644    ---   --   ---xx   out2009-04-15d2t03.flac
     6:30.45       68901884    ---   --   ---xx   out2009-04-15d2t04.flac
     1:59.24       21048092    ---   --   ---xx   out2009-04-15d2t05.flac
   105:58.23     1121606088 B                     (totals for 18 files, 0.5925 overall compression ratio)
Show Checksums
ffp
out2009-04-15d1t01.flac:8b39966e3b04246f5738904e6901c5c1
out2009-04-15d1t02.flac:d6c47f61a710ba85620aa3bc81ae0bad
out2009-04-15d1t03.flac:ebba11f97db137b76d76ca23b78915a9
out2009-04-15d1t04.flac:f006b004b55dce283bf10caf70c7ee97
out2009-04-15d1t05.flac:ec3ae29fa47166b0b858c6806793492b
out2009-04-15d1t06.flac:9b6cb9759adda8c7b6331557552757f3
out2009-04-15d1t07.flac:e7a43b9567daaff042d76e2c5ebfa822
out2009-04-15d1t08.flac:df70b1d2d2bc616dc4f3c05876c7c254
out2009-04-15d1t09.flac:c5280f4c96cac7f8a4565587dd340d13
out2009-04-15d1t10.flac:ccdd041f1a5e907f7c170865bd845ffe
out2009-04-15d1t11.flac:32e9f849b01dc27fe17c7375d13447ea
out2009-04-15d1t12.flac:90db34c81c13f8905f06e2c80ead2549
out2009-04-15d1t13.flac:6c04e7e51ebca25e937596ff7f45817f
out2009-04-15d2t01.flac:44a4524a833ceef96bbe0b161319f5d8
out2009-04-15d2t02.flac:42c4807cd43e803a33588b8408b5f2ea
out2009-04-15d2t03.flac:c6fcdcd82045408c079bb715bbb79950
out2009-04-15d2t04.flac:b1c9305e608f487304b4a59ba1d3650c
out2009-04-15d2t05.flac:8f847a02be42dd0d9b60cb5bc569f59c

Comments
Add Comment
Date User Comment