Browse Collections Artists Sources   Search Dates

Add Show    List Management    Help


Grateful Dead 07/08/87
Roanoke Civic Center, Roanoke, VA
Comments Add Comment    Source Collectors    Add to Collection    Add to Want List    History
Source # 105726 Other Sources
Entered by dr.unclear
Checksums flac-md5 , ffp
Disc Counts 2 / 2
Media Size
Date Circulated
Date Added
01/28/2010
01/28/2010
Source Summary flac16; Recorded by Dave Cohen 5th row behind Board, DFC (Sec LT5 Row E Seat 5) 2 Nakamichi CM100s/CP4>Sony TCD5M w/Dolby Maxell MX90s cassettes. The Master Cassettes were played back with Azimuth adjustment and Dolby Decoded on a Nakamichi CD1 into a Korg MR1000 at DSF 1 bit 5.6MHz. Subsequent conversion to 24/96 AIFF done via Korg Audiogate software. Redbook CDR standard 16/44.1 files were created using Bias Peak, Izotope Ozone's MBIT+ (for all dithering), and Weiss Saracon SRC (all sample rate conversions). FLAC'd using Audiofile Engineering Sample Manager. Transferred by Dave Cohen November 2009. 
  Archive
Source Information - Download Text | Download Zip
Grateful Dead
Roanoke Civic Center
Roanoke, Va.
07/08/87



Recorded by Dave Cohen
5th row behind Board, DFC (Sec LT5 Row E Seat 5)

2 Nakamichi CM100s/CP4>Sony TCD5M w/Dolby Maxell MX90s cassettes.
The Master Cassettes were played back with Azimuth adjustment
and Dolby Decoded on a Nakamichi CD1 into a Korg MR1000 at
DSF 1 bit 5.6MHz. Subsequent conversion to 24/96 AIFF done via
Korg Audiogate software. Redbook CDR standard 16/44.1 files were
created using Bias Peak, Izotope Ozone's MBIT+ (for all dithering),
and Weiss Saracon SRC (all sample rate conversions). FLAC'd using
Audiofile Engineering Sample Manager.
Transferred by Dave Cohen November 2009.


Disc 1
d1t01   crowd and tuning
d1t02   Hell in a Bucket >
d1t03   Sugaree
d1t04   It's All Over Now
d1t05   Dupree's Diamond Blues
d1t06   Never Trust a Woman
d1t07   When I Paint My Masterpiece
d1t08   Big Railroad Blues
d1t09   Let it Grow  [applause fades out]

Disc 2
d2t01   crowd
d2t02   Scarlet Begonias >
d2t03   Fire on the Mountain
d2t04   Estimated Prophet >
d2t05   He's Gone >
d2t06   Drums // >
d2t07   Space >
d2t08   Crazy Fingers >
d2t09   Truckin' >
d2t10   Comes a Time >
d2t11   Sugar Magnolia
encore:
d2t12   Black Muddy River


Flacs & tracks named, sbe's fixed & checksums created, text file & setlist edited,
and uploaded to Workingman's Tracker (gdvault.com) January 2010.



  length     expanded size    cdr  WAVE problems  fmt   ratio  filename
     1:14.58       13190060 B   ---   --   ---xx   flac  0.5353  gd87-07-08d1t01.flac
     5:57.01       62977196 B   ---   --   ---xx   flac  0.6319  gd87-07-08d1t02.flac
     9:18.48       98544140 B   ---   --   ---xx   flac  0.5829  gd87-07-08d1t03.flac
     9:20.00       98784044 B   ---   --   ---xx   flac  0.5866  gd87-07-08d1t04.flac
     7:26.45       78780284 B   ---   --   ---xx   flac  0.5725  gd87-07-08d1t05.flac
     5:13.06       55227356 B   ---   --   ---xx   flac  0.6081  gd87-07-08d1t06.flac
     4:47.36       50711516 B   ---   --   ---xx   flac  0.5769  gd87-07-08d1t07.flac
     3:48.38       40308620 B   ---   --   ---xx   flac  0.6015  gd87-07-08d1t08.flac
    11:19.28      119841500 B   ---   --   ---xx   flac  0.6031  gd87-07-08d1t09.flac
     1:43.64       18319772 B   ---   --   ---xx   flac  0.4964  gd87-07-08d2t01.flac
     8:20.14       88232972 B   ---   --   ---xx   flac  0.5911  gd87-07-08d2t02.flac
     9:30.60      100689164 B   ---   --   ---xx   flac  0.6113  gd87-07-08d2t03.flac
    10:43.50      113542844 B   ---   --   ---xx   flac  0.6037  gd87-07-08d2t04.flac
     9:55.69      105120332 B   ---   --   ---xx   flac  0.5512  gd87-07-08d2t05.flac
     6:38.28       70273100 B   ---   --   ---xx   flac  0.5520  gd87-07-08d2t06.flac
     7:11.34       76108412 B   ---   --   ---xx   flac  0.4497  gd87-07-08d2t07.flac
     8:13.04       86974652 B   ---   --   ---xx   flac  0.5550  gd87-07-08d2t08.flac
     6:14.08       65992460 B   ---   --   ---xx   flac  0.6249  gd87-07-08d2t09.flac
     7:15.22       76785788 B   ---   --   ---xx   flac  0.5220  gd87-07-08d2t10.flac
     8:50.14       93524972 B   ---   --   ---xx   flac  0.6073  gd87-07-08d2t11.flac
     6:32.47       69259388 B   ---   --   ---xx   flac  0.5620  gd87-07-08d2t12.flac
   149:34.74     1583188572 B                            0.5775  (21 files)
Show Checksums
flac-md5
e6afe5c36742524508771cd2b3b0574b *gd87-07-08d1t01.flac
db8158e758e59a250ca23a5a1d051af9 *gd87-07-08d1t02.flac
c76ffe54c1160866bde81ed5c564f1bb *gd87-07-08d1t03.flac
1ea02547fc335cebd9b49530fcbd28ad *gd87-07-08d1t04.flac
d9fdd8462e4bbf97650833d50e4e112d *gd87-07-08d1t05.flac
54818e2eeb4b46057526afac817c03cf *gd87-07-08d1t06.flac
f4bcb7296e8ff5b2fa92d1076307633d *gd87-07-08d1t07.flac
ea75d5060a8988ff466fe1542aa75f54 *gd87-07-08d1t08.flac
5be3728adb295dbd5c410271599ff4c7 *gd87-07-08d1t09.flac
6eee87688b53e86f3d43f87faafa5117 *gd87-07-08d2t01.flac
0f67614cba1dd0fa73a853a01a19fa2d *gd87-07-08d2t02.flac
9201e4371c363d5e8497670e0d70cbe8 *gd87-07-08d2t03.flac
7b73f03044c16ed97b2b91ad9e87f082 *gd87-07-08d2t04.flac
38c44eae0b171e690d539e1b2ed50fbd *gd87-07-08d2t05.flac
1eaa13171bd5f0a984e8212cd4ea1600 *gd87-07-08d2t06.flac
323ba3b245057e2089f8c97398e38a30 *gd87-07-08d2t07.flac
bf73b5de54c7c91e4557adfb800862a1 *gd87-07-08d2t08.flac
849b414e649d691a555eb75e17491fa5 *gd87-07-08d2t09.flac
30d225c5ec6b6ffc72c5ab7a00823728 *gd87-07-08d2t10.flac
eef1515e54acc19185a38a1582277d0f *gd87-07-08d2t11.flac
c54c77ce24e5046f0e2a296e5124df70 *gd87-07-08d2t12.flac
ffp
gd87-07-08d1t01.flac:b90b03f8d8b8130aabf451e044ce0bf3
gd87-07-08d1t02.flac:b11669f9a38e8a0705a657e987fa5eee
gd87-07-08d1t03.flac:7409da7e28476ba597c8e7efe6717644
gd87-07-08d1t04.flac:1ebff8b53b58debab65072036baf0e0a
gd87-07-08d1t05.flac:c83f9eac71e213ef3e6f0bdcf3953a54
gd87-07-08d1t06.flac:2bcad4ade384f1b5257e61339b01c1ad
gd87-07-08d1t07.flac:f137a6a0321cc3dd02494eeb986f9ea3
gd87-07-08d1t08.flac:a76debead4023dfa821c285ce6360c74
gd87-07-08d1t09.flac:68e422e6eedb0f7536f6906af6eea659
gd87-07-08d2t01.flac:686e26e3c1a93fee59109b3db488de64
gd87-07-08d2t02.flac:4af33992daf41b0b2c49e0fa5117fd89
gd87-07-08d2t03.flac:2b4abe0f285fb2a90f254f145474318b
gd87-07-08d2t04.flac:a6737b88eecf385a6947edd2314987a2
gd87-07-08d2t05.flac:23d785b74af0040a21fd2896f6658af2
gd87-07-08d2t06.flac:d1512bdca765b7ceeea0b4c168fa1ca3
gd87-07-08d2t07.flac:ee92ab5a9903df9bb0d5b10592d0c9d7
gd87-07-08d2t08.flac:7190108232f45714bdff21266421639c
gd87-07-08d2t09.flac:8ecf7fa6682ff68460d473a21e257999
gd87-07-08d2t10.flac:6b4b3bb0e42f19b97f86d74bc038260d
gd87-07-08d2t11.flac:0696fed04ff4040184c7067faa6709b5
gd87-07-08d2t12.flac:d115b9fdde237a0b2da642f3e5ae1f4d

Comments
Add Comment
Other Sources (comments)
FOB aud.->DAT->WAV->SHN;... (1) AUD (taper's section)>... (1) FOB Schoeps > PCM > DAT @... (0) flac16; Source:... (0) flac16; Recording... (0) flac16; Recording:... (0) flac24; Source:... (0) flac16; Set 2... (0)
Date User Comment