Browse Collections Artists Sources   Search Dates

Add Show    List Management    Help


Garcia 02/27/79
Keystone, Berkeley, CA
Comments Add Comment    Source Collectors    Add to Collection    Add to Want List    History
Source # 105807 Other Sources
Entered by Joe Jupille
Checksums md5 , ffp
Disc Counts 0 / 0
Media Size
Date Circulated
Date Added
02/01/2010
02/01/2010
Source Summary flac1644: MOTB 0124: Eldon Porray's 2 x Sony ECM 280 >> Sony TC 153SD >> MAC >> Nakamichi CR7a => Korg MR-1000 >> DSF [1-bit / 5.8 MHz Stereo] >> Korg AudioGate >> WAV [24/96] ... ; transfered by Bob Menke, mastered by Bill Koucky and Derek McCabe. 
Source Information - Download Text | Download Zip
MOTB Release: 0124 16/44.1
Release Date: 2010-02-01
Band: Reconstruction
Date: 1979-02-27 (Tuesday)
Venue: Keystone
Location: Berkeley, CA
Analog Audience Source: FOB Master Cassettes (MAC)
Medium Stock Brands: MAC = 2 x Maxell UDXL II
Analog Lineage: 2 x Sony ECM 280 >> Sony TC 153SD >> MAC
Analog Sound Preservation: MAC >> Nakamichi CR7a => Korg MR-1000 >> DSF [1-bit / 5.8 MHz Stereo] >> Korg AudioGate >> WAV [24/96]
Taped By: Eldon Porray
Transfer By: Bob Menke
Mastering By: Bill Koucky and Derek McCabe


Set 1:
Disc 1
d1t01: A Lovely Night For Dancing
d1t02: Welcome to the Basement
d1t03: I Just Want To Stop
d1t04: Soul Roach
d1t05: It's No Use
d1t06: Another Star

set 1 (cont)
Disc 2
d2t01: Make It Better
d2t02: Lyinda  
d2t03: What You Won't Do For Love
d2t04: Ain't That Lovin' You
d2t05; The Harder They Come
d2t06: Long Train Running  
d2t07: Let's Go Get Stoned


Notes:

shntool 3.0.4
Copyright (C) 2000-2007 Jason Jordan

    length     expanded size    cdr  WAVE problems  fmt   ratio  filename
    10:14.36      108394316 B   ---   --   ---xx   flac  0.6611  jg1979-02-27.recon.fob.porray.menke.d1t01.flac
    12:10.14      128804972 B   ---   --   ---xx   flac  0.6244  jg1979-02-27.recon.fob.porray.menke.d1t02.flac
     5:12.04       55046252 B   ---   --   ---xx   flac  0.6129  jg1979-02-27.recon.fob.porray.menke.d1t03.flac
    10:38.65      112696124 B   ---   --   ---xx   flac  0.6665  jg1979-02-27.recon.fob.porray.menke.d1t04.flac
    11:26.51      121130396 B   ---   --   ---xx   flac  0.6583  jg1979-02-27.recon.fob.porray.menke.d1t05.flac
    11:37.12      122979068 B   ---   --   ---xx   flac  0.6866  jg1979-02-27.recon.fob.porray.menke.d1t06.flac
     4:27.52       47221148 B   ---   --   ---xx   flac  0.6343  jg1979-02-27.recon.fob.porray.menke.d2t01.flac
     9:45.71      103361036 B   ---   --   ---xx   flac  0.6257  jg1979-02-27.recon.fob.porray.menke.d2t02.flac
     6:14.21       66023036 B   ---   --   ---xx   flac  0.6141  jg1979-02-27.recon.fob.porray.menke.d2t03.flac
     7:50.65       83060924 B   ---   --   ---xx   flac  0.6441  jg1979-02-27.recon.fob.porray.menke.d2t04.flac
    13:05.30      138544604 B   ---   --   ---xx   flac  0.6391  jg1979-02-27.recon.fob.porray.menke.d2t05.flac
    11:25.71      121001036 B   ---   --   ---xx   flac  0.6857  jg1979-02-27.recon.fob.porray.menke.d2t06.flac
     7:21.38       77881820 B   ---   --   ---xx   flac  0.5058  jg1979-02-27.recon.fob.porray.menke.d2t07.flac
   121:31.05     1286144732 B                            0.6412  (13 files)
Show Checksums
md5
2a67dbb20ec2d590c514c1732fbcc6b7 *jg1979-02-27.recon.fob.porray.menke.d1t01.flac
fae1c992b6e8e22ca2a856d729cdfaf6 *jg1979-02-27.recon.fob.porray.menke.d1t02.flac
68b8d19c976cdaef46dd2dccbf9559f4 *jg1979-02-27.recon.fob.porray.menke.d1t03.flac
1bcbb6ea91c10bf5d18de2a35bacdc99 *jg1979-02-27.recon.fob.porray.menke.d1t04.flac
ffffb63c24c9e709d38d9f2e28f2a683 *jg1979-02-27.recon.fob.porray.menke.d1t05.flac
29ebb335d0ec077f395a902726ec85d3 *jg1979-02-27.recon.fob.porray.menke.d1t06.flac
67759c37a65b1df2d8783f72c3f7e82a *jg1979-02-27.recon.fob.porray.menke.d2t01.flac
1e657ac8acd053a0b98547fc72503869 *jg1979-02-27.recon.fob.porray.menke.d2t02.flac
3153eb1c9e3998bda773f2c4a56526fc *jg1979-02-27.recon.fob.porray.menke.d2t03.flac
824861017ab4beb14f2227df1bf463e2 *jg1979-02-27.recon.fob.porray.menke.d2t04.flac
a168a9129029b9eaffb52a654e4414b5 *jg1979-02-27.recon.fob.porray.menke.d2t05.flac
e3fef70f9630bde58c7f9e6b04b77ca2 *jg1979-02-27.recon.fob.porray.menke.d2t06.flac
51548d2bf70cffc10fa4f2e5d3abf1ab *jg1979-02-27.recon.fob.porray.menke.d2t07.flac
ffp
jg1979-02-27.recon.fob.porray.menke.d1t01.flac:784b103c22d8d08361a2c591d5b7a69c
jg1979-02-27.recon.fob.porray.menke.d1t02.flac:ae4cfefcdcc6c2ba4be6a084a7b46f44
jg1979-02-27.recon.fob.porray.menke.d1t03.flac:a114d19afd20419852eb225d9efc4b79
jg1979-02-27.recon.fob.porray.menke.d1t04.flac:011ab57262c7783cbaeaf485e6099689
jg1979-02-27.recon.fob.porray.menke.d1t05.flac:a0f809144c13713418718d5d00c84aec
jg1979-02-27.recon.fob.porray.menke.d1t06.flac:a47a3dee749644bf0aa2ea320b5f10f2
jg1979-02-27.recon.fob.porray.menke.d2t01.flac:44813bf170c8a5b92985abc89eb9ee9a
jg1979-02-27.recon.fob.porray.menke.d2t02.flac:c7c334bf26842a36aff97bf7b5cac5d6
jg1979-02-27.recon.fob.porray.menke.d2t03.flac:9cb0977429b9d73e5caff8cd24de80ee
jg1979-02-27.recon.fob.porray.menke.d2t04.flac:da1eb742e0529ecc39dfee3bbefdebbf
jg1979-02-27.recon.fob.porray.menke.d2t05.flac:a41dee7473f827007d81eb6a3baf94c1
jg1979-02-27.recon.fob.porray.menke.d2t06.flac:4ae84ba9812070237d07aa79adf0edf8
jg1979-02-27.recon.fob.porray.menke.d2t07.flac:cb539b51950053c588287d1df55449b3

Comments
Add Comment
Other Sources (comments)
Reconstruction: MAC > DAT >... (0)
Date User Comment