Browse Collections Artists Sources   Search Dates

Add Show    List Management    Help


Outformation 07/26/07
The World Grotto, Knoxville, TN
Comments Add Comment    Source Collectors    Add to Collection    Add to Want List    History
Source # 105907 Other Sources
Entered by
Checksums ffp
Disc Counts 0 / 0
Media Size Compressed: 1.31 GB (1405701948 bytes)
Date Circulated
Date Added
08/20/07
02/09/2010
Source Summary Source: Neumann ak40 > lc3 > km100 > SD 722 @ (24/96)
Location: ON Stage/ ORTF
Transfer: 722~>cdwave~>wavelab5~>flac level 6
Recorded & Transferred by Chris Campbell 
Source Information - Download Text | Download Zip
07/26/07
The World Grotto
Knoxville, TN

Source: Neumann ak40 > lc3 > km100 > SD 722 @ (24/96)
Location: ON Stage/ ORTF
Transfer: 722~>cdwave~>wavelab5~>flac level 6
Recorded & Transferred by Chris Campbell
Seeded by Stacey Ochs

I:
01: tuning*
02: Danny's Son* >
03: Start It Out Again*,
04: Time Stands Still*,
05: Tennessee Before Daylight*
06: Into My Arms*
07: Traveler's Rest*
08: Frenchy's Theme*
09: Can't Change The Past*

II:
01: Grady's Intro*/Jam*
02: Searchin' For A Rainbow*
03: Tulsa Time**
04: Chicken Pickin'*
05: Long Lonely Road*
06: Set Me Free*
07: You Got Yours*
08: Long Hard Ride*

Encore:
09: Tuning
10: Anymore
11: Edgewater
12: Carnac

Guests:
*Clarke Keown on guitar and vocals
**Clarke Keown on guitar and vocals and John Montgomery on guitar

Notes: 'Danny's Son' sample during 'Danny's Son' - 'Stranglehold' tease before
'Searchin' For A Rainbow' as well as narrative by Grady from 'Knight: My Story' by Bobby Knight

Setlists Compliments of SETFORMATION www.setformation.com
For everything OUTFORMATION... www.foryouroutformation.com

shntool:
    length     expanded size   cdr  WAVE problems filename
     1:28.09       15544412    ---   --   ---xx   out 2007-07-26 d1 t01.flac
     1:13.56       13008956    ---   --   ---xx   out 2007-07-26 d1 t02.flac
    13:08.57      139137308    ---   --   ---xx   out 2007-07-26 d1 t03.flac
     6:37.43       70131980    ---   --   ---xx   out 2007-07-26 d1 t04.flac
     6:44.16       71303276    ---   --   ---xx   out 2007-07-26 d1 t05.flac
     7:23.06       78159356    ---   --   ---xx   out 2007-07-26 d1 t06.flac
     9:32.50      101018444    ---   --   ---xx   out 2007-07-26 d1 t07.flac
     5:58.02       63155948    ---   --   ---xx   out 2007-07-26 d1 t08.flac
     5:07.40       54248924    ---   --   ---xx   out 2007-07-26 d1 t09.flac
     2:59.10       31599164    ---   --   ---xx   out 2007-07-26 d2 t01.flac
     8:41.10       91927964    ---   --   ---xx   out 2007-07-26 d2 t02.flac
     7:04.39       74885372    ---   --   ---xx   out 2007-07-26 d2 t03.flac
     5:08.50       54448844    ---   --   ---xx   out 2007-07-26 d2 t04.flac
    10:57.60      116035964    ---   --   ---xx   out 2007-07-26 d2 t05.flac
     4:03.59       43004012    ---   --   ---xx   out 2007-07-26 d2 t06.flac
    10:33.29      111729452    ---   --   ---xx   out 2007-07-26 d2 t07.flac
     4:45.74       50448092    ---   --   ---xx   out 2007-07-26 d2 t08.flac
     1:51.08       19599260    ---   --   ---xx   out 2007-07-26 d2 t09.flac
     3:40.21       38857436    ---   --   ---xx   out 2007-07-26 d2 t10.flac
     5:26.41       57602876    ---   --   ---xx   out 2007-07-26 d2 t11.flac
    10:22.57      109854908    ---   --   ---xx   out 2007-07-26 d2 t12.flac
   132:48.62     1405701948 B                     (totals for 21 files, 0.5756 overall compression ratio)

There were no sector boundary errors.
Show Checksums
ffp
out 2007-07-26 d2 t12.flac:db06a9b7bef93e272738e45c46ac32cb
out 2007-07-26 d1 t01.flac:718d8f31c6168c1e2333e8c14ddaee9c
out 2007-07-26 d1 t02.flac:ab0753a7cf52d2f38d5f94cd172c6ff6
out 2007-07-26 d1 t03.flac:cf63706a09d682040847883b713d5388
out 2007-07-26 d1 t04.flac:4cf27a6108ba711a5c48cf7f10f2e47f
out 2007-07-26 d1 t05.flac:6f43fa0ebc2fd24e99e06dc1714b84a2
out 2007-07-26 d1 t06.flac:757d442909d7b6163d8408bc5fd10737
out 2007-07-26 d1 t07.flac:3ee60c91916f1cd01c52bbe473ebf8d8
out 2007-07-26 d1 t08.flac:79a227ddfc9e993b64d49bf67f445b12
out 2007-07-26 d1 t09.flac:8a1b2bad44227a465decfa953e2829f4
out 2007-07-26 d2 t01.flac:0ec21fc8b8d9bf30d6a40dbb59ff21ba
out 2007-07-26 d2 t02.flac:195e31949bf166f4d903b4d4ffb06266
out 2007-07-26 d2 t03.flac:7b45e038931608e8017daff79cd49aab
out 2007-07-26 d2 t04.flac:a0aca433775a9f9cf91284531f7c9582
out 2007-07-26 d2 t05.flac:27029ff1aa0509bcc94f1d7cfae239bf
out 2007-07-26 d2 t06.flac:289792d74e3b183ecfdd3476ffcfc0c7
out 2007-07-26 d2 t07.flac:1a3d6265f808f47289afc8d8d7b79b82
out 2007-07-26 d2 t08.flac:7d31f7ea89e91d55ab74a39345f654e6
out 2007-07-26 d2 t09.flac:e571f1eba8ad8438f92c49c0e3a85c53
out 2007-07-26 d2 t10.flac:2e54890f2a067c284beeb7400d28edaa
out 2007-07-26 d2 t11.flac:6181c3c9638a35545aea02aecdbd9807

Comments
Add Comment
Date User Comment