Browse Collections Artists Sources   Search Dates

Add Show    List Management    Help


Garcia 03/30/79
The Catalyst, Santa Cruz, CA
Comments Add Comment    Source Collectors    Add to Collection    Add to Want List    History
Source # 106004 Other Sources
Entered by Joe Jupille
Checksums ffp , md5
Disc Counts 0 / 0
Media Size
Date Circulated
Date Added
02/11/2010
02/12/2010
Source Summary flac1644; MOTB 0128: Eldon Porray's 2 x Sony ECM 280s >> Sony TC 153SD >> MAC>> Nakamichi CR7a => Korg MR-1000 >> DSF [1-bit / 5.8 MHz Stereo] >> Korg AudioGate >> WAV [24/96] ... flac. 
Source Information - Download Text | Download Zip
MOTB Release: 0128 16/44.1
Release Date: 2010-02-11
Band: Reconstruction
Date: 1979-03-30 (Friday)
Venue: The Catalyst
Location: Santa Cruz, CA
Analog Audience Source: FOB Master Cassettes (MAC)
Medium Stock Brands: 2 x Maxell UDXL II
Analog Lineage: 2 x Sony ECM 280s >> Sony TC 153SD >> MAC
Analog Sound Preservation: MAC >> Nakamichi CR7a => Korg MR-1000 >> DSF [1-bit / 5.8 MHz Stereo] >> Korg AudioGate >> WAV [24/96]
Taped By: Eldon Porray
Transfer By: Bob Menke
Mastering By: Bill Koucky and Derek McCabe

Jerry Garcia - Guitar, Vocals
John Kahn - Bass
Merl Saunders - Keyboards, Vocals
Ed Neumeister - Trombone
Ron Stallings - Tenor Saxophone, Vocals
Gaylord Birch – Drums

Set One:
Disc 1

d1t01: I Just Want To Stop
d1t02: Nessa
d1t03: Struggling Man
d1t04: band introductions
d1t05: A Lovely Night For Dancing
d1t06: Another Star
d1t07: Make It Better
d1t08: Linda Chicana

Set One(cont)
Disc 2

d2t01: What You Won't Do For Love
d2t02: Sama Layuca
d2t03: The Hunter Gets Captured By The Game
d2t04: Mohican and the Great Spirit
d2t05: It's No Use

Notes:
Track 1: "I Just Want To Stop" has a dropout in left channel, so patched as mono from 0:50 - 1:04

    length     expanded size    cdr  WAVE problems  fmt   ratio  filename
     5:23.69       57139532 B   ---   --   ---xx   flac  0.6067  jg1979-03-30.d1t01.flac
    12:33.50      132946844 B   ---   --   ---xx   flac  0.5761  jg1979-03-30.d1t02.flac
     6:37.00       70030844 B   ---   --   ---xx   flac  0.5855  jg1979-03-30.d1t03.flac
     1:11.34       12604412 B   ---   --   ---xx   flac  0.6227  jg1979-03-30.d1t04.flac
    11:43.42      124108028 B   ---   --   ---xx   flac  0.6462  jg1979-03-30.d1t05.flac
    14:41.66      155563676 B   ---   --   ---xx   flac  0.6548  jg1979-03-30.d1t06.flac
     6:24.56       67869356 B   ---   --   ---xx   flac  0.6419  jg1979-03-30.d1t07.flac
     9:04.01       95963996 B   ---   --   ---xx   flac  0.6271  jg1979-03-30.d1t08.flac
     6:51.14       72533372 B   ---   --   ---xx   flac  0.6117  jg1979-03-30.d2t01.flac
    17:10.34      181772012 B   ---   --   ---xx   flac  0.6359  jg1979-03-30.d2t02.flac
     5:21.54       56751452 B   ---   --   ---xx   flac  0.5882  jg1979-03-30.d2t03.flac
    11:23.13      120511820 B   ---   --   ---xx   flac  0.6064  jg1979-03-30.d2t04.flac
     9:39.51      102255596 B   ---   --   ---xx   flac  0.6457  jg1979-03-30.d2t05.flac
   118:06.34     1250050940 B                            0.6227  (13 files)
Show Checksums
ffp
jg1979-03-30.d1t01.flac:0883441de67a66ef672c846d80539b59
jg1979-03-30.d1t02.flac:59bd9a666ecbd96d1705837e44e31b74
jg1979-03-30.d1t03.flac:dc8e21b4ff6358c536ab6ed29e87aa76
jg1979-03-30.d1t04.flac:d36518285f828835ee9bff5be797965f
jg1979-03-30.d1t05.flac:557ea66fde739526c7ee298b61a67107
jg1979-03-30.d1t06.flac:84b741ec857601d23feef29a47a10bfc
jg1979-03-30.d1t07.flac:fbdf882aadadf77d5f7db6a7d4460997
jg1979-03-30.d1t08.flac:1d1eb6836ac2e8cc99a2743f3c75e529
jg1979-03-30.d2t01.flac:0c588dac6ce337fe9b53c922fefb2523
jg1979-03-30.d2t02.flac:c2cff460baf01cdc38a5a4127b100265
jg1979-03-30.d2t03.flac:610a4c74d3344bd19062715e435df9c5
jg1979-03-30.d2t04.flac:661da082eea78040769dd5e3c286c5db
jg1979-03-30.d2t05.flac:3d77505494704089d52e736ffc8ee952
md5
a945b7fe6476e2a3716ce8426fa2d805 *jg1979-03-30.d1t01.flac
f99c7742f8ecc2c849485a81e1b7a9e9 *jg1979-03-30.d1t02.flac
32f60bf79345def790eee0166076f9c0 *jg1979-03-30.d1t03.flac
4d7b4a9ee0c672a474fa869583a4f710 *jg1979-03-30.d1t04.flac
d3c53317bb7b5d6594022332550c5d7a *jg1979-03-30.d1t05.flac
e1837659252fa823bcb2c79fb35e40a2 *jg1979-03-30.d1t06.flac
b820e2e128ac996120a1e61532b3134a *jg1979-03-30.d1t07.flac
0c4941e17320f7e8d029575b8793120b *jg1979-03-30.d1t08.flac
7ad1498d27efa33e6c548650122865e6 *jg1979-03-30.d2t01.flac
1c5201912733510d3cf396d65e742313 *jg1979-03-30.d2t02.flac
6a777813b4b98e22c1612e93b4f1f3f8 *jg1979-03-30.d2t03.flac
e3482f0defe30654a69c738e72e019b4 *jg1979-03-30.d2t04.flac
9a93b0174872b1cf5f681a227f97fe66 *jg1979-03-30.d2t05.flac

Comments
Add Comment
Other Sources (comments)
Reconstruction: MAC > DAT >... (0)
Date User Comment
12/16/2017 jgmf It seems that Reconstruction played the Catalyst on 3/31. In comments at http://jgmf.blogspot.com/2017/12/the-great-barcia.html, Nick points out that someone yells "April Fools!" after Linda Chicana, so the proper date of this material is probably 3/31. (Reconstruction played Keystone Palo Alto on 3/30.)