Browse Collections Artists Sources   Search Dates

Add Show    List Management    Help


North Mississippi Allstars 02/13/10
The Fillmore, Denver, CO
Comments Add Comment    Source Collectors    Add to Collection    Add to Want List    History
Source # 106236 Other Sources
Entered by Brad Foster
Checksums ffp
Disc Counts 1 / 1
Media Size
Date Circulated
Date Added
02/22/2010
02/22/2010
Source Summary flac16: 4 Mic Mix Source 1: MBHO 603a>actives>KA500N(TS) > V3(24/48) > R-44(digital in) Source 2: Neumann KM100>LC3>AK40(TS) > V2 > Oade mod.R-44(24/48) 
  Archive
Source Information - Download Text | Download Zip
North Mississippi Allstars
Saturday, February 13, 2010
Fillmore Auditorium
Denver, CO

** 16 Bit **

(59:21)
01. Shake What Yo' Mama Gave You
02. Keep the Devil Down
03. Mean Ol' Wind Died Down
04. The Ghetto
05. Po' Black Maddie >
06. Skinny Woman >
07. Drumz >
08. Shake 'em on Down
09. Let it Roll
10. Goin' Down South
11. Hear My Train a Comin'
12. Snake Drive

Opened for Gov't Mule.

4 Mic Mix
Source 1: MBHO 603a>actives>KA500N(TS) > V3(24/48) > R-44(digital in)
Source 2: Neumann KM100>LC3>AK40(TS) > V2 > Oade mod.R-44(24/48)
Transfer: SD Card > USB > Sound Forge Pro 10(Mix/EQ/Nomralize/Fades/Dither/Resample) > CDWave > FLAC16(8) > Foobar(Live Show Tagger)
Taped & Transfered by: Eric Foelske (taperwookie AT gmail.com)
-------------------------------------------------------
FLAC Fingerprint:
-------------------------------------------------------
nmas2010-02-13t01.flac:17df19eda0ed6c7eb41b43aec73ec549
nmas2010-02-13t02.flac:053cf808d2a85c2fe853938e95f806e9
nmas2010-02-13t03.flac:a19d19f99325af1e23fc6f9a189da840
nmas2010-02-13t04.flac:679091e2ac08d602391c5d96e4fba72d
nmas2010-02-13t05.flac:745da93383614be0e139affd97b2eadb
nmas2010-02-13t06.flac:5be1912396b5b80e3742f7cf89b9724c
nmas2010-02-13t07.flac:de927cfe036ffa1b01e63f627b89baf6
nmas2010-02-13t08.flac:c7c1442e974167c26b7ea38790cabce6
nmas2010-02-13t09.flac:3d8af4320c90780b1de65ec0fead5b25
nmas2010-02-13t10.flac:a6fd31c8dbab545a03844e39e90a8bf7
nmas2010-02-13t11.flac:8753de179e698df5648559f93a28f457
nmas2010-02-13t12.flac:932ce079a14f7684f21cd0bfe8ab8a5b
-------------------------------------------------------
shntool:
-------------------------------------------------------
    length     expanded size   cdr  WAVE problems filename
     4:02.50       42806444    ---   --   ---xx   nmas2010-02-13t01.flac
     4:17.13       45365420    ---   --   ---xx   nmas2010-02-13t02.flac
     9:49.07      103916108    ---   --   ---xx   nmas2010-02-13t03.flac
     4:46.53       50575100    ---   --   ---xx   nmas2010-02-13t04.flac
     7:48.30       82625804    ---   --   ---xx   nmas2010-02-13t05.flac
     4:57.18       52433180    ---   --   ---xx   nmas2010-02-13t06.flac
     1:17.67       13740428    ---   --   ---xx   nmas2010-02-13t07.flac
     4:50.54       51283052    ---   --   ---xx   nmas2010-02-13t08.flac
     4:42.39       49836572    ---   --   ---xx   nmas2010-02-13t09.flac
     3:30.69       37206332    ---   --   ---xx   nmas2010-02-13t10.flac
     6:40.45       70665884    ---   --   ---xx   nmas2010-02-13t11.flac
     2:38.04       27880652    ---   --   ---xx   nmas2010-02-13t12.flac
    59:21.74      628334976 B                     (totals for 12 files, 0.5337 overall compression ratio)
Show Checksums
ffp
nmas2010-02-13t01.flac:17df19eda0ed6c7eb41b43aec73ec549
nmas2010-02-13t02.flac:053cf808d2a85c2fe853938e95f806e9
nmas2010-02-13t03.flac:a19d19f99325af1e23fc6f9a189da840
nmas2010-02-13t04.flac:679091e2ac08d602391c5d96e4fba72d
nmas2010-02-13t05.flac:745da93383614be0e139affd97b2eadb
nmas2010-02-13t06.flac:5be1912396b5b80e3742f7cf89b9724c
nmas2010-02-13t07.flac:de927cfe036ffa1b01e63f627b89baf6
nmas2010-02-13t08.flac:c7c1442e974167c26b7ea38790cabce6
nmas2010-02-13t09.flac:3d8af4320c90780b1de65ec0fead5b25
nmas2010-02-13t10.flac:a6fd31c8dbab545a03844e39e90a8bf7
nmas2010-02-13t11.flac:8753de179e698df5648559f93a28f457
nmas2010-02-13t12.flac:932ce079a14f7684f21cd0bfe8ab8a5b

Comments
Add Comment
Other Sources (comments)
flac16: Busman Audio... (0) flac24: Busman Audio... (0) flac16: ADK A-51TL's... (0) flac24: ADK A-51TL's... (0)
Date User Comment