Browse Collections Artists Sources   Search Dates

Add Show    List Management    Help


Grateful Dead 04/11/89
Rosemont Horizon, Rosemont, IL
Comments Add Comment    Source Collectors    Add to Collection    Add to Want List    History
Source # 106238 Other Sources
Entered by dr.unclear
Checksums flac-md5 , ffp
Disc Counts 2 / 3
Media Size
Date Circulated
Date Added
02/22/2010
02/22/2010
Source Summary flac16; Recorded by Justin L. Lee 2 Nakamichi CM300s CP4 1 Nakamichi CM100 CP1 Nakamichi 550>Sony TCD5M (Oade erase head removal modifications) w/Dolby B in OTS. Dolby B was used on the Master Cassettes. The Master Cassettes were played back with Azimuth adjustment and Dolby B decoding on a Nakamichi CD1 into a Korg MR1000 at DSF 1 bit 5.6MHz. Subsequent conversion to 24/96 AIFF done via Korg Audiogate software. Redbook CDR standard 16/44.1 files were created using Bias Peak, Izotope Ozone's MBIT+ (for all dithering), and Weiss Saracon SRC (all sample rate conversions). Transferred by Dave Cohen November 2009. 
  Archive
Source Information - Download Text | Download Zip
Grateful Dead
Rosemont Horizon
Rosemont, IL.
April 11, 1989


Recorded by Justin L. Lee
2 Nakamichi CM300s CP4
1 Nakamichi CM100 CP1
Nakamichi 550>Sony TCD5M (Oade erase head removal modifications) w/Dolby B
in OTS. Dolby B was used on the Master Cassettes. The Master Cassettes were
played back with Azimuth adjustment and Dolby B decoding on a Nakamichi CD1
into a Korg MR1000 at DSF 1 bit 5.6MHz. Subsequent conversion to 24/96 AIFF
done via Korg Audiogate software. Redbook CDR standard 16/44.1 files were created
using Bias Peak, Izotope Ozone's MBIT+ (for all dithering), and Weiss Saracon SRC
(all sample rate conversions).
Transferred by Dave Cohen November 2009.



Disc 1
d1t01   Shakedown Street
d1t02   Little Red Rooster
d1t03   Friend Of The Devil
d1t04   Victim Or //The Crime  
d1t05   Built To Last
d1t06   We Can Run
d1t07   Stuck Inside of Mobile >
d1t08   Deal

Disc 2
d2t01   crowd
d2t02   Samson & Delilah >
d2t03   Crazy Fingers >
d2t04   Playing in the Band >
d2t05   Terrapin Station
d2t06   Drums // >

Disc 3
d3t01   Drums > Space>
d3t02   Gimme Some Lovin' >
d3t03   Standing on the Moon >
d3t04   Throwing Stones >
d3t05   Not Fadeaway
encore:
d3t06   U. S. Blues


Notes:
- cut at 5:43 in Victim or the Crime.
- cut at end of d2t06
- Flacs & tracks named, sbe's fixed & checksums created, text file & setlist edited,
and uploaded to gdvault.com's Workingman's Tracker February 2010.


   length     expanded size    cdr  WAVE problems  fmt   ratio  filename
    13:46.62      145852268 B   ---   --   ---xx   flac  0.5559  gd89-04-11d1t01.flac
    10:30.10      111155564 B   ---   --   ---xx   flac  0.5370  gd89-04-11d1t02.flac
     9:33.53      101201900 B   ---   --   ---xx   flac  0.5303  gd89-04-11d1t03.flac
     7:50.60       83049164 B   ---   --   ---xx   flac  0.5409  gd89-04-11d1t04.flac
     5:15.01       55568396 B   ---   --   ---xx   flac  0.5678  gd89-04-11d1t05.flac
     5:09.00       54507644 B   ---   --   ---xx   flac  0.5512  gd89-04-11d1t06.flac
     9:27.11      100044716 B   ---   --   ---xx   flac  0.5919  gd89-04-11d1t07.flac
     9:12.26       97433996 B   ---   --   ---xx   flac  0.6035  gd89-04-11d1t08.flac
     1:31.65       16205324 B   ---   --   ---xx   flac  0.4967  gd89-04-11d2t01.flac
     7:18.42       77362028 B   ---   --   ---xx   flac  0.5798  gd89-04-11d2t02.flac
     7:57.61       84286316 B   ---   --   ---xx   flac  0.5512  gd89-04-11d2t03.flac
     8:45.38       92699420 B   ---   --   ---xx   flac  0.5567  gd89-04-11d2t04.flac
    12:51.33      136082060 B   ---   --   ---xx   flac  0.5713  gd89-04-11d2t05.flac
     6:39.35       70465964 B   ---   --   ---xx   flac  0.5356  gd89-04-11d2t06.flac
     9:47.28      103612700 B   ---   --   ---xx   flac  0.4938  gd89-04-11d3t01.flac
     5:25.31       57402956 B   ---   --   ---xx   flac  0.5896  gd89-04-11d3t02.flac
     6:51.62       72646268 B   ---   --   ---xx   flac  0.5330  gd89-04-11d3t03.flac
     9:58.08      105506060 B   ---   --   ---xx   flac  0.5747  gd89-04-11d3t04.flac
     8:03.58       85337660 B   ---   --   ---xx   flac  0.5717  gd89-04-11d3t05.flac
     5:38.19       59667932 B   ---   --   ---xx   flac  0.5879  gd89-04-11d3t06.flac
   161:34.28     1710088336 B                            0.5577  (20 files)

Show Checksums
flac-md5
9393111eeec5f7b7bd37dfd886d4bada *gd89-04-11d1t01.flac
9eef2738f7e601a82deb23da7e81e0fa *gd89-04-11d1t02.flac
06bd50b12a265560cc1a2a2ee898ba25 *gd89-04-11d1t03.flac
286756b046e098c5207579dbcf0e1c7b *gd89-04-11d1t04.flac
d79fc04b04093b8f002d684ea09b86b5 *gd89-04-11d1t05.flac
1e6fdda3a9232beec3bdd06872eaf649 *gd89-04-11d1t06.flac
cefd2a46aa85027f869c95433c4a628b *gd89-04-11d1t07.flac
532948f5baddf782cbe7ec0ab1040a8c *gd89-04-11d1t08.flac
fb91f2c4cf55e8a2b6e5659306445385 *gd89-04-11d2t01.flac
b9d23d252000ac076c8967968525f138 *gd89-04-11d2t02.flac
10e5f9cab1b52d6ae4cfaf83e21dd54e *gd89-04-11d2t03.flac
ae92d656915a126be7a58f43bd07454b *gd89-04-11d2t04.flac
709522798c530d62b97dae4a051e5a45 *gd89-04-11d2t05.flac
2cb0652c93d233cf7d51d10fdc8df529 *gd89-04-11d2t06.flac
feb5058d9eafb874d59b43743965a3b6 *gd89-04-11d3t01.flac
da7b280624da60de014a98b9dc777491 *gd89-04-11d3t02.flac
0e9862a0458691a786afb0407ab01f78 *gd89-04-11d3t03.flac
4bb69e76579b6024843deac39ca8193f *gd89-04-11d3t04.flac
12d176ba7a26609a3dbc91b86bbb9954 *gd89-04-11d3t05.flac
a54b20604ef0698ea02df4eaec414a7e *gd89-04-11d3t06.flac
ffp
gd89-04-11d1t01.flac:88e2ac3cca2e08e4f565b04ed30d6fe8
gd89-04-11d1t02.flac:8e0bfe550664b45dfc6ddbdf3d373d39
gd89-04-11d1t03.flac:762204fc43cd95cd926d95152e4690b8
gd89-04-11d1t04.flac:81d2839d6fdb95e53e1489665a22ab78
gd89-04-11d1t05.flac:54455b575d09a5be789faacb9bf6583b
gd89-04-11d1t06.flac:d65710a1dec5eca6d1828cbaccb914b6
gd89-04-11d1t07.flac:7d400a5f64a4b90e1a3d9b67cf3bfa52
gd89-04-11d1t08.flac:d9f80028b0c5a295c54a83192c01ce1e
gd89-04-11d2t01.flac:d21bee7a8f2ded100a0ff40e5bab7795
gd89-04-11d2t02.flac:ecedb0f5cf9e4274c972e1e2834531aa
gd89-04-11d2t03.flac:4918a640cdee1bfdb6fce0800f4379c9
gd89-04-11d2t04.flac:bcc78817fec0c44c6aedfc2da6e8f044
gd89-04-11d2t05.flac:e76fb4660b0b377150fb4b573b17a100
gd89-04-11d2t06.flac:24c221013c266256ddfcc0e1e289e84d
gd89-04-11d3t01.flac:4b7980fe720c720a45cc2a5973f2926a
gd89-04-11d3t02.flac:d55db1e6e6d1fdb1a854ee7adec84e19
gd89-04-11d3t03.flac:a0f8b2e5f1b9411042bea8348ca228e5
gd89-04-11d3t04.flac:fa7264ee90934b46ab74eda2449d48da
gd89-04-11d3t05.flac:29c347b6690212534fff84fc662900b6
gd89-04-11d3t06.flac:fccc2e037fb6feac43b055437c031442

Comments
Add Comment
Other Sources (comments)
SBD -> Dat -> Samplitude ->... (0) flac16; Source:... (0) flac24; Master... (0) flac16; Master... (0) flac16; Recording... (0)
Date User Comment