Browse Collections Artists Sources   Search Dates

Add Show    List Management    Help


Grateful Dead 11/24/79
Golden Hall, Community Concourse, San Diego, CA
Comments Add Comment    Source Collectors    Add to Collection    Add to Want List    History
Source # 106307 Other Sources
Entered by
Checksums flac-md5 , ffp
Disc Counts 0 / 0
Media Size Compressed: 1.52 GB (1629687700 bytes)
Date Circulated
Date Added
02/26/2010
02/26/2010
Source Summary flac16; 2 x Nak cm700's >> Sony TC-D5 >> MAC >> Nakamichi CR7a => Korg MR-1000 >> DSF [1-bit 5.6448 MHz Stereo] >> Korg MR-1000 => Korg AudioGate >> WAV [24/96] 
  Archive
Source Information - Download Text | Download Zip
MOTB Release: 0133 16/44.1
Release Date: 2010-02-26
Band: Grateful Dead
Date: 1979-11-24 (Friday)
Venue: Golden Hall, Community Concourse
Location: San Diego, CA
Analog Audience Source: FOB Master Cassettes (MAC)
Medium Stock Brands: MAC = 2 x Maxell UDXL-II
Analog Lineage: 2 x Nak cm700's >> Sony TC-D5  >> MAC
Analog Sound Preservation: MAC >> Nakamichi CR7a => Korg MR-1000 >> DSF [1-bit 5.6448 MHz Stereo] >> Korg MR-1000 => Korg AudioGate >> WAV [24/96]
Taped By: Bob Menke
Transfer By: Bob Menke
Mastering By: David Minches

Disc One
Set 1:
d1t01: Tuning
d1t02: China Cat Sunflower>
d1t03: I Know You Rider
d1t04: Mama Tried>
d1t05: Mexicali Blues
d1t06: Peggy O
d1t07: Cassidy
d1t08: Easy To Love You
d1t09: Althea
d1t10: Passenger

Disc Two
Set 2:
d2t01: Tuning
d2t02: Alabama Getaway>
d2t03: Greatest Story Ever Told
d2t04: Ship of Fools
d2t05: Terrapin Station>
d2t06: Playin' in the Band>
d2t07: Drums>

Disc Three
Set 2 (Cont)
d3t01: Space>
d3t02: Lost Sailor>
d3t03: Saint of Circumstance>
d3t04: Wharf Rat>
d3t05: Sugar Magnolia
Encore
d3t06: One More Saturday Night


Notes:



shntool 3.0.4
Copyright (C) 2000-2007 Jason Jordan

    length     expanded size    cdr  WAVE problems  fmt   ratio  filename
     1:28.14       15556172 B   ---   --   ---xx   flac  0.5218  gd1979-11-24.d1t01.flac
     6:07.43       64839980 B   ---   --   ---xx   flac  0.5915  gd1979-11-24.d1t02.flac
     9:31.43      100825580 B   ---   --   ---xx   flac  0.6071  gd1979-11-24.d1t03.flac
     2:39.60       28188764 B   ---   --   ---xx   flac  0.5811  gd1979-11-24.d1t04.flac
     5:04.62       53771468 B   ---   --   ---xx   flac  0.5781  gd1979-11-24.d1t05.flac
     8:19.58       88160060 B   ---   --   ---xx   flac  0.5311  gd1979-11-24.d1t06.flac
     5:32.11       58590716 B   ---   --   ---xx   flac  0.5833  gd1979-11-24.d1t07.flac
     3:27.26       36575996 B   ---   --   ---xx   flac  0.6094  gd1979-11-24.d1t08.flac
     9:55.39      105049772 B   ---   --   ---xx   flac  0.5540  gd1979-11-24.d1t09.flac
     5:25.35       57412364 B   ---   --   ---xx   flac  0.6207  gd1979-11-24.d1t10.flac
     1:37.19       17155532 B   ---   --   ---xx   flac  0.4977  gd1979-11-24.d2t01.flac
     7:21.51       77912396 B   ---   --   ---xx   flac  0.6054  gd1979-11-24.d2t02.flac
     6:35.08       69696860 B   ---   --   ---xx   flac  0.5770  gd1979-11-24.d2t03.flac
    10:02.30      106263404 B   ---   --   ---xx   flac  0.5279  gd1979-11-24.d2t04.flac
    12:31.08      132495260 B   ---   --   ---xx   flac  0.5602  gd1979-11-24.d2t05.flac
    14:35.64      154500572 B   ---   --   ---xx   flac  0.5626  gd1979-11-24.d2t06.flac
     6:45.41       71538476 B   ---   --   ---xx   flac  0.5520  gd1979-11-24.d2t07.flac
     1:29.62       15845468 B   ---   --   ---xx   flac  0.4704  gd1979-11-24.d3t01.flac
     6:15.05       66161804 B   ---   --   ---xx   flac  0.5542  gd1979-11-24.d3t02.flac
     5:29.04       58045052 B   ---   --   ---xx   flac  0.6049  gd1979-11-24.d3t03.flac
     9:32.59      101039612 B   ---   --   ---xx   flac  0.5427  gd1979-11-24.d3t04.flac
     9:06.44       96417932 B   ---   --   ---xx   flac  0.5979  gd1979-11-24.d3t05.flac
     5:04.08       53644460 B   ---   --   ---xx   flac  0.6124  gd1979-11-24.d3t06.flac
   153:58.44     1629687700 B                            0.5704  (23 files)
Show Checksums
flac-md5
1d01ba28d331b312f93cbfa509f68767 *gd1979-11-24.d1t01.flac
fd2234313ffe6a042ee64c6ee1a53686 *gd1979-11-24.d1t02.flac
beca6b7030a7ccb1ae15c178148dd563 *gd1979-11-24.d1t03.flac
2e93f6bb45ccbfa7f368386d1e63a8f2 *gd1979-11-24.d1t04.flac
7bf8a89357eb2b3ed2797737eb6673b5 *gd1979-11-24.d1t05.flac
20663d3a37166ff0b95a4f42d3a0d398 *gd1979-11-24.d1t06.flac
cc485079dc285fcc0688db2181752d26 *gd1979-11-24.d1t07.flac
c8f5c8573d3a2deda19fc4b0fda6e942 *gd1979-11-24.d1t08.flac
561efe0aaf7c49d944e3df21b5b4b7cf *gd1979-11-24.d1t09.flac
96d6c9ede1e2f5e16dab26ad3f47c54e *gd1979-11-24.d1t10.flac
b3c3f6ad65bc9aeb10466013d4b3bde8 *gd1979-11-24.d2t01.flac
9ea636cd977de9ca3059c6d3eca5e9db *gd1979-11-24.d2t02.flac
bfbea565d6300846f3ea5e112012a91a *gd1979-11-24.d2t03.flac
9e2142834d3a5ac11b68217a58d942b2 *gd1979-11-24.d2t04.flac
6139df1bcfea2429d342831e0b4e54ab *gd1979-11-24.d2t05.flac
1547d32a01fbe040c0b26f1142a776c8 *gd1979-11-24.d2t06.flac
3d2503f2ca71389c87621c1f31b0d28b *gd1979-11-24.d2t07.flac
b94ea5f8f92f91aa3a4939c1ba362825 *gd1979-11-24.d3t01.flac
0ed9916602b6ad94b41d505d77c9db02 *gd1979-11-24.d3t02.flac
cfb85b77b1c300a11d0c70d8c5e00385 *gd1979-11-24.d3t03.flac
4c5dc05287bf1c87d00d47e6833dbdf5 *gd1979-11-24.d3t04.flac
8c8db0edd8a61a198f0a67fd9a56da4b *gd1979-11-24.d3t05.flac
0654acb71b0655940ed77ea5e00c69c4 *gd1979-11-24.d3t06.flac
ffp
gd1979-11-24.d1t01.flac:07f19b286edbff2758c1d77f8315ccda
gd1979-11-24.d1t02.flac:f066be0e53c66f3ebea5d1c8f78235d9
gd1979-11-24.d1t03.flac:4ccfcdaa59fb55759211e65f0c4e40c4
gd1979-11-24.d1t04.flac:4537775c347b43b94f031d8572ff4584
gd1979-11-24.d1t05.flac:81d41e153122255a6686bcd59d40cebb
gd1979-11-24.d1t06.flac:415e4c69d7e03d0cf2afdf00ce4848d6
gd1979-11-24.d1t07.flac:efcb3be9461ff884b19bbb25f6486be3
gd1979-11-24.d1t08.flac:3f6c20cb926c997f0d744564b7c13d43
gd1979-11-24.d1t09.flac:58fdc8baa497c254e5520a4dd357caf5
gd1979-11-24.d1t10.flac:385abba54bd6e7916610320b30702afc
gd1979-11-24.d2t01.flac:690d6ee9f411b3b3321335389a189736
gd1979-11-24.d2t02.flac:2c173429e72cf6dda4ec9aed8290292c
gd1979-11-24.d2t03.flac:23a58efe93321ac470eabd3f0ac419c7
gd1979-11-24.d2t04.flac:e15ed3fc79aa15a8a69f60ea4d962359
gd1979-11-24.d2t05.flac:958cde2173f7706a12917ed49598e06d
gd1979-11-24.d2t06.flac:9ba511a570dfc9a14b006a386dc30d92
gd1979-11-24.d2t07.flac:21b3ff8069269069d1eea9e046b2a5a8
gd1979-11-24.d3t01.flac:ed6e3fbbed689191a44cda954b837086
gd1979-11-24.d3t02.flac:2c97e3f17d3d6b360d1353a93d41e482
gd1979-11-24.d3t03.flac:8b1673ff769be56019532dc6cb0eae31
gd1979-11-24.d3t04.flac:d894c9c4e13629f657cc58bcbed65d17
gd1979-11-24.d3t05.flac:a814db2d27fa8551625196f52d8861c8
gd1979-11-24.d3t06.flac:f6ded5ada6dc48463a7eb949257c7a7f

Comments
Add Comment
Other Sources (comments)
Sources:Primary... (2) flac16; Recording... (0) flac16; Matrix by... (0)
Date User Comment