Browse Collections Artists Sources   Search Dates

Add Show    List Management    Help


Grateful Dead 05/12/79
Alumni Stadium, University of Massachusetts, Amherst, MA
Comments Add Comment    Source Collectors    Add to Collection    Add to Want List    History
Source # 106433 Other Sources
Entered by Matt Vernon
Checksums ffp , flac-md5
Disc Counts 0 / 0
Media Size
Date Circulated
Date Added
03/08/2010
03/07/2010
Source Summary flac24; Set 2, FOB AUD: 3x Nakamichi CM-300's > Nakamichi 550 (lead deck) > Sony TC-153SD (Tim's deck) > Maxell UD-XLII's. Set up FOB center aprx sixty feet from stage. Taped by Tim Friend. Transfer: MAC > Nakamichi CR5A > Edirol FA-66 > Wavelab 2496 > CD-Wave > TLH > FLAC 2496 Tagged. Transfer by Andrew F. 03/2010 
  Archive
Source Information - Download Text | Download Zip
GRATEFUL DEAD
Alumni Stadium
University of Massachusetts
Amherst MA
05-12-1979
2nd Set Only

24bit/96kHz file-set

s2t01 Don't Ease Me In
s2t02 Samson & Delilah
s2t03 Friend of the Devil
s2t04 Terrapin >
s2t05 Playin' in the Band >
s2t06 Drums >
s2t07 Space >
s2t08 Not Fade Away >
s2t09 Stella Blue >
s2t10 Good Lovin'
s2t11 Encore: Shakedown Street >
s2t12 Encore: One More Saturday Night

FOB AUD: 3x Nakamichi CM-300's > Nakamichi 550 (lead deck) >
Sony TC-153SD (Tim's deck) > Maxell UD-XLII's. Set up FOB
center aprx sixty feet from stage. Taped by Tim Friend.

Transfer: MAC > Nakamichi CR5A > Edirol FA-66 > Wavelab 2496 >
CD-Wave > TLH > FLAC 2496 Tagged. Transfer by Andrew F. 03/2010

Comment from Tim: "It is only the second set. I remember we had
to "hand over our batteries" to prevent taping. We were at the
soundboard, and the guy I patched into knew Healy. We laid low
for the first set, and broke out spare batts for the second set.
I patched into his 550 and 300s."

Notes: LC mic cable static, RC crossfaded to mono; Samson 8:25 >
8:39, and FOTD 0:20 > 2:48. Tape flips patched with ID-18874;
Playin' 8:14 > 8:24, Space 6:08 > 6:24, and Stella 0:05 > 0:13.
The nut-case riding his motorcycle through the crowd can be heard
at the start of FOTD...rock on Dude!

    length     expanded size    cdr  WAVE problems  fmt   ratio  filename
     3:33.467     122956844 B   cxx   --   ---xx   flac  0.5889  gd1979-05-12s2t01.flac
     9:08.813     316116524 B   cxx   --   ---xx   flac  0.6062  gd1979-05-12s2t02.flac
    10:29.853     362795564 B   cxx   --   ---xx   flac  0.5831  gd1979-05-12s2t03.flac
    13:40.560     472642604 B   cxx   --   ---xx   flac  0.5935  gd1979-05-12s2t04.flac
    13:53.737     480232388 B   cxx   --   ---xx   flac  0.5924  gd1979-05-12s2t05.flac
    13:06.240     452874284 B   cxx   --   ---xx   flac  0.5615  gd1979-05-12s2t06.flac
     6:26.867     222835244 B   cxx   --   ---xx   flac  0.5542  gd1979-05-12s2t07.flac
    11:05.987     383608364 B   cxx   --   ---xx   flac  0.5925  gd1979-05-12s2t08.flac
     8:19.234     287558630 B   cxx   --   ---xx   flac  0.5664  gd1979-05-12s2t09.flac
     7:39.613     264737324 B   cxx   --   ---xx   flac  0.6062  gd1979-05-12s2t10.flac
    12:04.947     417569324 B   cxx   --   ---xx   flac  0.5928  gd1979-05-12s2t11.flac
     4:43.687     163403570 B   cxx   --   ---xx   flac  0.6045  gd1979-05-12s2t12.flac
   114:13.004    3947330664 B                            0.5866  (12 files)

No errors occured.
Show Checksums
ffp
gd1979-05-12s2t01.flac:308f3ab36a60a59d913c44c343d652bc
gd1979-05-12s2t02.flac:47b87486a0b3e3c3eda604cec0ecdf6b
gd1979-05-12s2t03.flac:49ad9d85635ab767cee2b63d00e43a20
gd1979-05-12s2t04.flac:3d7e6b86debfb0ccafd5ce2b57f3a0e7
gd1979-05-12s2t05.flac:3905d27891001af2d460404c60b34535
gd1979-05-12s2t06.flac:e50c90ab64d805147580a6b2957851d8
gd1979-05-12s2t07.flac:a822d7dba3a0f20b2a91587ccf71e4eb
gd1979-05-12s2t08.flac:cb2157ddb0a5b4ab6551917549d54c08
gd1979-05-12s2t09.flac:f17ebf040f1e7d910187b41b05b18961
gd1979-05-12s2t10.flac:8f9e47e9da7a7b90caf3f6a8f7af079c
gd1979-05-12s2t11.flac:2be28ed115a6071d073f2d822a7eaf10
gd1979-05-12s2t12.flac:6b9fca635f5590f52c4cf05badf19c0d
flac-md5
62769179420fdcb263cfd40227cbc7c1 *gd1979-05-12s2t01.flac
3d42fc9496617e922a2e45ca0027ca6e *gd1979-05-12s2t02.flac
12a3b05c7c7b1ed07e1dc2f0519fcd99 *gd1979-05-12s2t03.flac
22e6a38734f4b8b030f0c75dfed1573f *gd1979-05-12s2t04.flac
23e03f559a3c1f20e2360ab926673601 *gd1979-05-12s2t05.flac
30d669287f925676478fe3d948275495 *gd1979-05-12s2t06.flac
d032b093c55e990fe8379cd4567de1e3 *gd1979-05-12s2t07.flac
964dbc56f8d8d5226f3991118fd911b5 *gd1979-05-12s2t08.flac
107219b57020b7e4a85fd8d6c1ef2bc0 *gd1979-05-12s2t09.flac
dd1b115bfffaf668bff939d2b50accbd *gd1979-05-12s2t10.flac
925afc1606dbabb973cbe17c92ed5095 *gd1979-05-12s2t11.flac
ebd53e7e006177626350d6192c190e8f *gd1979-05-12s2t12.flac

Comments
Add Comment
Other Sources (comments)
Recording by Barry... (2) Recording by Barry... (2) flac16; Recording by... (0) flac16; Set 2, FOB... (0)
Date User Comment