Browse Collections Artists Sources   Search Dates

Add Show    List Management    Help


Grateful Dead 05/12/79
Alumni Stadium, University of Massachusetts, Amherst, MA
Comments Add Comment    Source Collectors    Add to Collection    Add to Want List    History
Source # 106434 Other Sources
Entered by Matt Vernon
Checksums ffp , flac-md5
Disc Counts 1 / 2
Media Size
Date Circulated
Date Added
03/08/2010
03/07/2010
Source Summary flac16; Set 2, FOB AUD: 3x Nakamichi CM-300's > Nakamichi 550 (lead deck) > Sony TC-153SD (Tim's deck) > Maxell UD-XLII's. Set up FOB center aprx sixty feet from stage. Taped by Tim Friend. Transfer: MAC > Nakamichi CR5A > Edirol FA-66 > Wavelab 2496 > CD-Wave > R8Brain > TLH > FLAC 1644 Tagged. Transfer by Andrew F. 03/2010 
  Archive
Source Information - Download Text | Download Zip
GRATEFUL DEAD
Alumni Stadium
University of Massachusetts
Amherst MA
05-12-1979
2nd Set Only

16bit/44.1kHz file-set

s2t01 Don't Ease Me In
s2t02 Samson & Delilah
s2t03 Friend of the Devil
s2t04 Terrapin >
s2t05 Playin' in the Band >
s2t06 Drums >
s2t07 Space >
s2t08 Not Fade Away >
s2t09 Stella Blue >
s2t10 Good Lovin'
s2t11 Encore: Shakedown Street >
s2t12 Encore: One More Saturday Night

FOB AUD: 3x Nakamichi CM-300's > Nakamichi 550 (lead deck) >
Sony TC-153SD (Tim's deck) > Maxell UD-XLII's. Set up FOB
center aprx sixty feet from stage. Taped by Tim Friend.

Transfer: MAC > Nakamichi CR5A > Edirol FA-66 > Wavelab 2496 >
CD-Wave > R8Brain > TLH > FLAC 1644 Tagged. Transfer by Andrew F.
03/2010

Comment from Tim: "It is only the second set. I remember we had
to "hand over our batteries" to prevent taping. We were at the
soundboard, and the guy I patched into knew Healy. We laid low
for the first set, and broke out spare batts for the second set.
I patched into his 550 and 300s."

Notes: LC mic cable static, RC crossfaded to mono; Samson 8:25 >
8:39, and FOTD 0:20 > 2:48. Tape flips patched with ID-18874;
Playin' 8:14 > 8:24, Space 6:08 > 6:24, and Stella 0:05 > 0:13.
The nut-case riding his motorcycle through the crowd can be heard
at the start of FOTD...rock on Dude!

    length     expanded size    cdr  WAVE problems  fmt   ratio  filename
     3:33.35       37655564 B   ---   --   ---xx   flac  0.5693  gd1979-05-12s2t01.flac
     9:08.61       96810716 B   ---   --   ---xx   flac  0.5930  gd1979-05-12s2t02.flac
    10:29.64      111106172 B   ---   --   ---xx   flac  0.5540  gd1979-05-12s2t03.flac
    13:40.42      144746828 B   ---   --   ---xx   flac  0.5673  gd1979-05-12s2t04.flac
    13:53.55      147070604 B   ---   --   ---xx   flac  0.5791  gd1979-05-12s2t05.flac
    13:06.18      138692780 B   ---   --   ---xx   flac  0.5110  gd1979-05-12s2t06.flac
     6:26.65       68243324 B   ---   --   ---xx   flac  0.4888  gd1979-05-12s2t07.flac
    11:05.74      117480092 B   ---   --   ---xx   flac  0.5701  gd1979-05-12s2t08.flac
     8:19.17       88063628 B   ---   --   ---xx   flac  0.5229  gd1979-05-12s2t09.flac
     7:39.46       81075836 B   ---   --   ---xx   flac  0.5906  gd1979-05-12s2t10.flac
    12:04.71      127880636 B   ---   --   ---xx   flac  0.5674  gd1979-05-12s2t11.flac
     4:43.53       50045900 B   ---   --   ---xx   flac  0.5838  gd1979-05-12s2t12.flac
   114:13.01     1208872080 B                            0.5580  (12 files)

No errors occured.
Show Checksums
ffp
gd1979-05-12s2t01.flac:b0b07639e116a20f399570080b3736f8
gd1979-05-12s2t02.flac:a8c7924fa4971d7a0ba49c4aba0404cf
gd1979-05-12s2t03.flac:3c078c423257bec9316dac702d6105b8
gd1979-05-12s2t04.flac:7ea6afadcd886117db7d6721e61cf94d
gd1979-05-12s2t05.flac:71eb3fb8749cb467129aba96fd0da679
gd1979-05-12s2t06.flac:fc6ab1472d2ad600fbcebb79a15ec7f1
gd1979-05-12s2t07.flac:c9210ac3b6b4ca6651e77507dfb81047
gd1979-05-12s2t08.flac:1d5c6ade6a7d3a807518b0ea9a3195bd
gd1979-05-12s2t09.flac:76fd93ce03dcc90a452d984ee9eb3116
gd1979-05-12s2t10.flac:d55df5c89defc287c949f9f3ffdec729
gd1979-05-12s2t11.flac:ffa0ce78614ab9c0f486779bfb10b0d1
gd1979-05-12s2t12.flac:67c8034769b47f13961699c49f0c5a2f
flac-md5
cb4bcd44fb8c488179dbdf10da8edf29 *gd1979-05-12s2t01.flac
173fd89cd88f163b22770e3255bd4fe3 *gd1979-05-12s2t02.flac
32030f3a15d78a66ad94f674940b8dbb *gd1979-05-12s2t03.flac
d76058f6d2287608bbe98a3e358b051f *gd1979-05-12s2t04.flac
b7fd6d18085a70f1e5a645ec820e1c68 *gd1979-05-12s2t05.flac
230480bfafd6d6db31e8b8a25f936814 *gd1979-05-12s2t06.flac
659c796850073cdbc187f7f677f88030 *gd1979-05-12s2t07.flac
cd220ed090152f2b79861de96981a1d2 *gd1979-05-12s2t08.flac
2dda7c7e14453d5eb098a3e1dc397601 *gd1979-05-12s2t09.flac
5a429bd74bfb50c8d21e51c0cc6faffb *gd1979-05-12s2t10.flac
0b106aaab4edbce0bb62210fe7bdcb0d *gd1979-05-12s2t11.flac
be27c234f3b883dd69cf88dc51422e8d *gd1979-05-12s2t12.flac

Comments
Add Comment
Other Sources (comments)
Recording by Barry... (2) Recording by Barry... (2) flac16; Recording by... (0) flac24; Set 2, FOB... (0)
Date User Comment