Browse Collections Artists Sources   Search Dates

Add Show    List Management    Help


Grateful Dead 07/15/89
Deer Creek Music Center, Noblesville, IN
Comments Add Comment    Source Collectors    Add to Collection    Add to Want List    History
Source # 106500 Other Sources
Entered by Gary Field
Checksums ffp , flac-md5
Disc Counts 2 / 3
Media Size
Date Circulated
Date Added
03/12/2010
03/12/2010
Source Summary flac16; Recorded by David Cohen & Justin Lee. Front Row of Lawn 8 foot stand 2 Nakamichi CM300s/ CP1s X-Y @ 90degrees w/1 Nakamichi CM300/CP2 bisecting the X-Y Pair> Nakamichi 550 w/Maxell XLIIS cassette masters. Dolby B was used on the Master Cassettes. The Master Cassettes were played back with Azimuth adjustment and Dolby B decoding on a Nakamichi CD1 into a Korg MR1000 at DSF 1 bit 5.6MHz. Subsequent conversion to 24/96 AIFF done via Korg Audiogate software. Redbook CDR standard 16/44.1 files were created using Bias Peak, Izotope Ozone's MBIT+ (for all dithering), and Weiss Saracon SRC (all sample rate conversions). Transferred by Dave Cohen November 2009. 
  Archive
Source Information - Download Text | Download Zip
Grateful Dead
Deer Creek Music Theatre
Noblesville, In.
July 15, 1989



Recorded by David Cohen & Justin Lee
Front Row of Lawn 8 foot stand
2 Nakamichi CM300s/ CP1s X-Y @ 90degrees w/1 Nakamichi CM300/CP2
bisecting the X-Y Pair> Nakamichi 550 w/Maxell XLIIS cassette masters.
Dolby B was used on the Master Cassettes. The Master Cassettes were
played back with Azimuth adjustment and Dolby B decoding on a Nakamichi CD1
into a Korg MR1000 at DSF 1 bit 5.6MHz. Subsequent conversion to 24/96 AIFF
done via Korg Audiogate software. Redbook CDR standard 16/44.1 files were
created using Bias Peak, Izotope Ozone's MBIT+ (for all dithering), and
Weiss Saracon SRC (all sample rate conversions).
Transferred by Dave Cohen November 2009.



Set One
Disc 1
d1t01   Bertha >
d1t02   Greatest Story Ever Told
d1t03   Candyman
d1t04   Walkin' Blues
d1t05   Peggy-O
d1t06   Queen Jane Approximately
d1t07   We Can Run
d1t08   Birdsong

Set Two
Disc 2
d2t01   Foolish Heart >
d2t02   Victim or the Crime
d2t03   Crazy Fingers >
d2t04   Truckin' >
d2t05   Smokestack Lightning >
d2t06   Jam >
d2t07   Drums >

Set Two continued
Disc 3
d3t01   Space >
d3t02   China Doll >
d3t03   All Along the Watchtower >
d3t04   Stella Blue >
d3t05   Sugar Magnolia*
encore:
Brokedown Palace


Notes:
* dropout ~ 8 seconds into Sugar Magnolia
- Flacs & tracks named, sbe's fixed & checksums created, text file & setlist edited,
and uploaded to gdvault.com's Workingman's Tracker March 2010.


    length     expanded size    cdr  WAVE problems  fmt   ratio  filename
     7:07.19       75367532 B   ---   --   ---xx   flac  0.5410  gd89-07-15d1t01.flac
     7:04.00       74793644 B   ---   --   ---xx   flac  0.4652  gd89-07-15d1t02.flac
     7:10.58       75988460 B   ---   --   ---xx   flac  0.4924  gd89-07-15d1t03.flac
     7:35.34       80342012 B   ---   --   ---xx   flac  0.4879  gd89-07-15d1t04.flac
     7:23.32       78220508 B   ---   --   ---xx   flac  0.4954  gd89-07-15d1t05.flac
     8:56.14       94583372 B   ---   --   ---xx   flac  0.5078  gd89-07-15d1t06.flac
     5:49.06       61577756 B   ---   --   ---xx   flac  0.5399  gd89-07-15d1t07.flac
    13:45.54      145657052 B   ---   --   ---xx   flac  0.5373  gd89-07-15d1t08.flac
    10:55.00      115542044 B   ---   --   ---xx   flac  0.5339  gd89-07-15d2t01.flac
     7:36.28       80504300 B   ---   --   ---xx   flac  0.5220  gd89-07-15d2t02.flac
     9:13.68       97709180 B   ---   --   ---xx   flac  0.5128  gd89-07-15d2t03.flac
     8:12.24       86845292 B   ---   --   ---xx   flac  0.5552  gd89-07-15d2t04.flac
     7:45.53       82150700 B   ---   --   ---xx   flac  0.5091  gd89-07-15d2t05.flac
     2:34.72       27334988 B   ---   --   ---xx   flac  0.5133  gd89-07-15d2t06.flac
     8:32.17       90356828 B   ---   --   ---xx   flac  0.4633  gd89-07-15d2t07.flac
    17:01.64      180254972 B   ---   --   ---xx   flac  0.4612  gd89-07-15d3t01.flac
     7:53.72       83606588 B   ---   --   ---xx   flac  0.5096  gd89-07-15d3t02.flac
     6:55.20       73253084 B   ---   --   ---xx   flac  0.5469  gd89-07-15d3t03.flac
     8:24.44       89009132 B   ---   --   ---xx   flac  0.4910  gd89-07-15d3t04.flac
     9:26.48       99955340 B   ---   --   ---xx   flac  0.5519  gd89-07-15d3t05.flac
     6:45.58       71578460 B   ---   --   ---xx   flac  0.5010  gd89-07-15d3t06.flac
   176:10.35     1864631244 B                            0.5099  (21 files)
Show Checksums
ffp
gd89-07-15d1t01.flac:ddff392c0196c625bf9c4ec4ba6bc1c0
gd89-07-15d1t02.flac:26b5d01a8e50ad4882c3bcb66545edd7
gd89-07-15d1t03.flac:d9f086509d63dda66b361aae1afa2d4a
gd89-07-15d1t04.flac:86a3b7d30f7df80930896b6ec9e0fd82
gd89-07-15d1t05.flac:d468b6d521fbc2a273f6d5e127dc4ac9
gd89-07-15d1t06.flac:5e7e0fce16553b6c6267d7fcedddd4fd
gd89-07-15d1t07.flac:172c6f2500de032280880fa877419ffc
gd89-07-15d1t08.flac:33964ca1be33678fbe847efd5af1d31c
gd89-07-15d2t01.flac:620a9be638314bf0df976ede36c4ba7a
gd89-07-15d2t02.flac:91a3efcbfa677ce0d01c4e71bc5d57a4
gd89-07-15d2t03.flac:4f83ce625e0d72d9a2a6e22318bad880
gd89-07-15d2t04.flac:0b9ebba260867cbc8e7399ba1ff23fd7
gd89-07-15d2t05.flac:2e2731160703536c57be2ef70b1f0b99
gd89-07-15d2t06.flac:1b419b995b8b252a0bd27af782353b1d
gd89-07-15d2t07.flac:ccd648dbfb4f50669b87d80074e559c5
gd89-07-15d3t01.flac:35d9cf528a23a7d7a4d3491833693dde
gd89-07-15d3t02.flac:0f1b1ca874b3f5965490f02abc921d3c
gd89-07-15d3t03.flac:cb6a6d71b52603295e4753d7099f009b
gd89-07-15d3t04.flac:b72a7737914e2a393ff6f45bbd17dc3f
gd89-07-15d3t05.flac:ead167be464b50510827614bd3174767
gd89-07-15d3t06.flac:646abc723f9d9c023b73e4da0d09186b
flac-md5
6171a662fb5f17e57be75b31b69d29be *gd89-07-15d1t01.flac
ddf056f3af39092c430beefd7f21f44b *gd89-07-15d1t02.flac
4ebde9501bc7d0bd476421311d60a8b3 *gd89-07-15d1t03.flac
dcb4596018c2173e25a6bf1664af6c17 *gd89-07-15d1t04.flac
dd71c505bf0b3ed289a04ef769a38e92 *gd89-07-15d1t05.flac
28c29ff4be7590d8da70472ab44686f4 *gd89-07-15d1t06.flac
477f4ae5c0002635ebbdef5f8d0034c9 *gd89-07-15d1t07.flac
963c400a5abfc564452d61a1eb92b2e1 *gd89-07-15d1t08.flac
3ab4ca56a729a697159bc674295285e8 *gd89-07-15d2t01.flac
4113c77d4a17f112fafe7b4ec427ad0e *gd89-07-15d2t02.flac
ce3b473674b7265cd0f678999b61e577 *gd89-07-15d2t03.flac
d2378d73ec5bb816e6769cd68009f792 *gd89-07-15d2t04.flac
5fb8c53ed40c813638c8830bec3c8df8 *gd89-07-15d2t05.flac
f79f85733ee1847bf7c7e6a4fc5bd4a7 *gd89-07-15d2t06.flac
36f30673cba592978da9a033c87e4252 *gd89-07-15d2t07.flac
ddb93780ec4e4e0463a365d208e9b243 *gd89-07-15d3t01.flac
fab0e5e847c00b19c3618f7295e7e283 *gd89-07-15d3t02.flac
486b9b4d04c3496919d35716c4bc0592 *gd89-07-15d3t03.flac
48422f251dfa8c32abd35ddb65aadf8e *gd89-07-15d3t04.flac
c1c48c22553473bd01b4819f266563a8 *gd89-07-15d3t05.flac
ee232481293cbc70bf0c669d11784cdf *gd89-07-15d3t06.flac

Comments
Add Comment
Other Sources (comments)
SBD > MR > DAT > C > DAT >... (2) flac16; Source:... (0) flac16; Recording... (0) flac16; Source:... (2) flac16; Taper: Greg... (0) flac16; Recorded &... (0) flac24; Master... (0) flac16; Master... (0) flac24; Recording... (0) flac16; Recording... (0) flac16; source: aud... (0) flac24; source: aud... (0) flac24/96 Source... (0)
Date User Comment