Browse Collections Artists Sources   Search Dates

Add Show    List Management    Help


Grateful Dead 01/13/80
Oakland-Alameda County Coliseum, Oakland, CA
Comments Add Comment    Source Collectors    Add to Collection    Add to Want List    History
Source # 106517 Other Sources
Entered by Matt Vernon
Checksums ffp , flac-md5
Disc Counts 1 / 2
Media Size
Date Circulated
Date Added
03/14/2010
03/14/2010
Source Summary flac16; Recording Info: SBD -> Cassette Master -> Dat; Transfer Info: Dat -> Samplitude Professional v11.03 -> FLAC; All Transfers and Mastering By Charlie Miller 
  Archive
Source Information - Download Text | Download Zip
Grateful Dead - January 13, 1980
Oakland Coliseum - Oakland, CA
Cambodian Refugee Benefit

Recording Info:
SBD -> Cassette Master -> Dat

Transfer Info:
Dat -> Samplitude Professional v11.03 -> FLAC
(2 Discs Audio / 1 Disc FLAC)

All Transfers and Mastering By Charlie Miller
[email protected]
March 13, 2010

Notes:
-- Disc change is seamless
-- May be from FM broadcast
-- Cuts in Jack Straw and Don't Ease Me In
-- Some static on Not Fade Away
-- Carlos Santana and John Cippolina on NFA and Sugar Mags
-- Greg Errico on U.S. Blues
-- Last 2 songs with Joan Baez and the Beach Boys

Setlist:
d1t01 - Jack Straw ->
d1t02 - Franklin's Tower
d1t03 - New Minglewood Blues
d1t04 - Tennessee Jed ->
d1t05 - Looks Like Rain ->
d1t06 - Don't Ease Me In
d2t01 - Playing In The Band ->
d2t02 - Drums ->
d2t03 - Not Fade Away ->
d2t04 - Sugar Magnolia

Encore:
d2t05 - U.S. Blues
d2t06 - Land Of A Thousand Dances
d2t07 - Amazing Grace


SHNTOOL OUTPUT:
    length     expanded size   cdr  WAVE problems filename
     5:50.22       61791788    ---   --   -----   gd80-01-13d1t01.wav
    12:12.42      129223628    ---   --   -----   gd80-01-13d1t02.wav
     7:52.53       83385500    ---   --   -----   gd80-01-13d1t03.wav
     8:33.42       90592028    ---   --   -----   gd80-01-13d1t04.wav
     7:23.58       78281660    ---   --   -----   gd80-01-13d1t05.wav
     3:28.61       36834716    ---   --   -----   gd80-01-13d1t06.wav
    11:01.55      116729804    ---   --   -----   gd80-01-13d2t01.wav
     7:07.54       75449852    ---   --   -----   gd80-01-13d2t02.wav
    14:53.65      157678124    ---   --   -----   gd80-01-13d2t03.wav
     8:24.59       89044412    ---   --   -----   gd80-01-13d2t04.wav
     6:22.39       67476572    ---   --   -----   gd80-01-13d2t05.wav
     4:26.73       47094140    ---   --   -----   gd80-01-13d2t06.wav
     5:33.32       58816508    ---   --   -----   gd80-01-13d2t07.wav
   103:12.55     1092398732 B                     (totals for 13 files)
als for 13 files)
Show Checksums
ffp
gd80-01-13d1t01.flac:abdc29b624e4ee5d1f8f5a5fc9468bac
gd80-01-13d1t02.flac:a510a4b0aef4913c93d5c0c26ac62b5e
gd80-01-13d1t03.flac:3ae1ed8477afa2ef182bcefe28d6436d
gd80-01-13d1t04.flac:bbd3ffd23eedc2ae01e131dfbc7246fc
gd80-01-13d1t05.flac:dd766ec299985d4ba77d775406d10c57
gd80-01-13d1t06.flac:3357827b24330143b20e1292907a5e60
gd80-01-13d2t01.flac:491ec5fd82ef9b18eaa7c00836314390
gd80-01-13d2t02.flac:d448b0c4a8c723caf89d7e066e849d84
gd80-01-13d2t03.flac:1b09bbb998d76d0f3ec6e922ee2f923f
gd80-01-13d2t04.flac:06039dcf935fcf40e2a038f450fa2f53
gd80-01-13d2t05.flac:333849b982f9bb33a77a9480b22bd73d
gd80-01-13d2t06.flac:619cd48c68e5904c1362510992cca24b
gd80-01-13d2t07.flac:ef9f41ab4af4cdff97ef26c8b40b836a
flac-md5
6ff4b87aa33864d2d2f65ab2c7df7eed *gd80-01-13d1t01.flac
d758aa7e16ae28797f10d018f6645209 *gd80-01-13d1t02.flac
05748c1a5859f087aecbc08012ed35f4 *gd80-01-13d1t03.flac
aee7315ebebb53a0a185f81f4534c1c3 *gd80-01-13d1t04.flac
a79cf25a4e69d7906132daf7c651fe85 *gd80-01-13d1t05.flac
42a75363fd5ea3e274628ddfa82f491b *gd80-01-13d1t06.flac
09b4509287a4481909d5196a6f695694 *gd80-01-13d2t01.flac
b77d6c36e52aa87ab77c505c0216d391 *gd80-01-13d2t02.flac
8fc12b413c28d9e69c0a3756367a1732 *gd80-01-13d2t03.flac
ec9699a300099acb99306b0d15c869ca *gd80-01-13d2t04.flac
be0684d22cd0ae1d79741dae316c9e47 *gd80-01-13d2t05.flac
602946cfea75cd8e5857ff76660499d2 *gd80-01-13d2t06.flac
fc4318a0729511f99bcd6baeedd45398 *gd80-01-13d2t07.flac

Comments
Add Comment
Other Sources (comments)
sbd> mr> dats> wav> shn;... (4) flac16; Recorded by... (0)
Date User Comment
03/14/2010 charliemiller Even though I labeled this as an SBD, I'm 99.99% sure it's from the FM (or possibly Pre-FM).