Browse Collections Artists Sources   Search Dates

Add Show    List Management    Help


Grateful Dead 04/27/71
Fillmore East, New York, NY
Comments Add Comment    Source Collectors    Add to Collection    Add to Want List    History
Source # 106550 Other Sources
Entered by Matt Vernon
Checksums ffp , flac-md5
Disc Counts 2 / 3
Media Size
Date Circulated
Date Added
03/16/2010
03/15/2010
Source Summary flac16; Recording Info Source One:SBD -> Shure Line Mixers -> Advent Advocate Dolby B Unit -> Master Reel (Sony Deck - BASF Tapes - 1/4 Track - 7 1/2 ips); Recording Info Source Two:SBD -> Shure Line Mixers -> Advent Advocate Dolby B Unit -> Master Reel (Sony Deck - BASF Tapes - 1/4 Track - 7 1/2 ips) -> Reel (Maxell Tape - 1/4 Track - 7 1/2 ips); Transfer Info Source One: Master Reel (Teac A-6100) -> Advent Advocate Dolby B Unit -> Fostex FR-2LE -> WAV (24bit/96k); Transfer Info Source Two:Reel (Teac A-6100) -> Advent Advocate Dolby B Unit -> Fostex FR-2LE -> WAV (24bit/96k); Mastering Info:WAV -> Adobe Audition v3.0 -> Samplitude Professional v11.03 -> FLAC/16; Reels Baked and Transferred By David Gans; All Mastering By Charlie Miller 
  Archive
Source Information - Download Text | Download Zip
Grateful Dead - April 27, 1971
Fillmore East - New York, NY

Recording Info Source One:
SBD -> Shure Line Mixers -> Advent Advocate Dolby B Unit ->
Master Reel (Sony Deck - BASF Tapes - 1/4 Track - 7 1/2 ips)

Recording Info Source Two:
SBD -> Shure Line Mixers -> Advent Advocate Dolby B Unit ->
Master Reel (Sony Deck - BASF Tapes - 1/4 Track - 7 1/2 ips) ->
Reel (Maxell Tape - 1/4 Track - 7 1/2 ips)

Transfer Info Source One:
Master Reel (Teac A-6100) -> Advent Advocate Dolby B Unit ->
Fostex FR-2LE -> WAV (24bit/96k)

Transfer Info Source Two:
Reel (Teac A-6100) -> Advent Advocate Dolby B Unit ->
Fostex FR-2LE -> WAV (24bit/96k)

Mastering Info:
WAV -> Adobe Audition v3.0 -> Samplitude Professional v11.03 -> FLAC/16
(3 Discs Audio / 2 Discs FLAC)

Reels Baked and Transferred By David Gans
All Mastering By Charlie Miller
[email protected]
March 15, 2010

Patch Info:
SBD -> Master Reel -> CD supplies:
Hard To Handle (0:00 - 0:13)
Sugar Magnolia (0:00 - 0:52)
Bird Song (4:00 - 5:42)
Help Me Rhonda (3:23 - 5:52)
Sing Me Back Home (0:00 - 0:32)
Uncle John's Band (1:44 - 1:45)
Turn On Your Lovelight (20:44 - end of track)

Notes:
-- Set 2 is seamless
-- Truckin' through Loser from source one (Master Reel)
-- Hard To Handle through end of show from source two (1st Gen Reel)
-- Patch source also provides some Set 1 tunings due to tape bleed through
-- Some patches are not very smooth due to extrenme mix differences
-- Beach Boys play on Searchin' through Johnny B. Goode
-- Good Vibrations and I Get Around without The Grateful Dead
-- Thanks to Bill Gadsden for supplying the reels
-- Thanks to digitalrbb for supplying the patch source
-- Thanks to Neil Sturtevant for rebuilding the dolby unit
-- Thanks to Joe B. Jones for his help with the pitch correction

Set 1:
d1t01 - Tuning
d1t02 - Truckin'
d1t03 - Mama Tried
d1t04 - Bertha
d1t05 - Next Time You See Me
d1t06 - Cumberland Blues
d1t07 - Me And Bobby McGee
d1t08 - Loser
d1t09 - Hard To Handle
d1t10 - China Cat Sunflower ->
d1t11 - I Know You Rider
d1t12 - Casey Jones

Set 2:
d2t01 - Sugar Magnolia
d2t02 - Deal
d2t03 - Me And My Uncle
d2t04 - Bird Song
d2t05 - Playing In The Band
d2t06 - Dire Wolf
d2t07 - Searchin'
d2t08 - Riot In Cell Block #9
d2t09 - Good Vibrations
d2t10 - I Get Around
d2t11 - Help Me Rhonda
d2t12 - Okie From Muskogee
d3t01 - Johnny B. Goode
d3t02 - Sing Me Back Home
d3t03 - Uncle John's Band
d3t04 - Turn On Your Lovelight


SHNTOOL OUTPUT:
    length     expanded size   cdr  WAVE problems filename
     1:54.59       20248412    ---   --   -----   gd71-04-27d1t01.wav
    10:41.00      113072444    ---   --   -----   gd71-04-27d1t02.wav
     3:12.41       33965276    ---   --   -----   gd71-04-27d1t03.wav
     6:31.26       69033596    ---   --   -----   gd71-04-27d1t04.wav
     4:36.02       48691148    ---   --   -----   gd71-04-27d1t05.wav
     6:26.32       68165708    ---   --   -----   gd71-04-27d1t06.wav
     6:22.69       67547132    ---   --   -----   gd71-04-27d1t07.wav
     8:30.21       90013436    ---   --   -----   gd71-04-27d1t08.wav
    10:06.34      106978412    ---   --   -----   gd71-04-27d1t09.wav
     4:46.66       50605676    ---   --   -----   gd71-04-27d1t10.wav
     5:53.18       62311580    ---   --   -----   gd71-04-27d1t11.wav
     6:49.06       72161756    ---   --   -----   gd71-04-27d1t12.wav
     7:07.18       75365180    ---   --   -----   gd71-04-27d2t01.wav
     5:52.30       62163404    ---   --   -----   gd71-04-27d2t02.wav
     3:47.01       40045196    ---   --   -----   gd71-04-27d2t03.wav
     8:19.57       88157708    ---   --   -----   gd71-04-27d2t04.wav
     7:36.27       80501948    ---   --   -----   gd71-04-27d2t05.wav
     7:46.48       82315340    ---   --   -----   gd71-04-27d2t06.wav
     7:27.42       78949628    ---   --   -----   gd71-04-27d2t07.wav
     7:48.01       82557596    ---   --   -----   gd71-04-27d2t08.wav
     5:39.63       59947820    ---   --   -----   gd71-04-27d2t09.wav
     2:31.34       26716412    ---   --   -----   gd71-04-27d2t10.wav
     7:17.20       77133884    ---   --   -----   gd71-04-27d2t11.wav
     3:45.22       39741788    ---   --   -----   gd71-04-27d2t12.wav
     8:46.50       92904044    ---   --   -----   gd71-04-27d3t01.wav
    10:52.74      115186892    ---   --   -----   gd71-04-27d3t02.wav
     6:11.48       65557340    ---   --   -----   gd71-04-27d3t03.wav
    22:19.69      236361932    ---   --   -----   gd71-04-27d3t04.wav
   199:01.03     2106400688 B                     (totals for 28 files)
Show Checksums
ffp
gd71-04-27d1t01.flac:19f9c7e09cda16db25b4933e6b0cc468
gd71-04-27d1t02.flac:645d2f0d433daf197dc8bf759d561b60
gd71-04-27d1t03.flac:3b3cfe74674b398c1be4f83e749c857f
gd71-04-27d1t04.flac:c300a481a8c5f0924ee90aa834800f4d
gd71-04-27d1t05.flac:aebf204eeaee708334a74744c18c28e0
gd71-04-27d1t06.flac:5ed24052952a137c8d729e5465aa31c9
gd71-04-27d1t07.flac:701f8e879aaeb48526675ff5b01e0d55
gd71-04-27d1t08.flac:1f2edb24796f9b171434e3944e92dd3b
gd71-04-27d1t09.flac:6c1f2528e522f1fb84057dbb01305521
gd71-04-27d1t10.flac:e04d02b5ea40008366b09692103fa314
gd71-04-27d1t11.flac:d8dbfde0974ed1e67fb9982522db23f4
gd71-04-27d1t12.flac:b07e1a98ef880fa874a5ca651c05c73d
gd71-04-27d2t01.flac:c90656253c500273b82f7cc06048c74b
gd71-04-27d2t02.flac:6c6822e56261ddaf5d0782eb93fd87fe
gd71-04-27d2t03.flac:49174ce50c9e6747b13c5b854a2060ea
gd71-04-27d2t04.flac:71f361d0ec1fcb59edf971b39d1584a3
gd71-04-27d2t05.flac:560aed2f1f67f776dafad9383b46a780
gd71-04-27d2t06.flac:c956eadb475f472ef23be1c2d1a333d9
gd71-04-27d2t07.flac:4ec54aac3c240eaaaf96bead01a1e563
gd71-04-27d2t08.flac:44cc962cc9965b7ac1b8f3165e74c7d7
gd71-04-27d2t09.flac:264144740398dc0e546750b432977326
gd71-04-27d2t10.flac:d4c39d5b18bf1e7b7efd0c2e5aa75b21
gd71-04-27d2t11.flac:75c398ca8f91bade866e13cd250af6fe
gd71-04-27d2t12.flac:5fdff1351f1b341423469a99270557a5
gd71-04-27d3t01.flac:de84e018b2a331e00dfc6a4e2e4faa37
gd71-04-27d3t02.flac:e2f82b24fe9977d9bb8376e8abdff6f7
gd71-04-27d3t03.flac:88b82a9bbf90501d160dfa5e4b270efc
gd71-04-27d3t04.flac:11b9de1cf767af5f6e57fe1af0092cd3
flac-md5
a0b9d239f7729fa9cefe7bb19ab4d593 *gd71-04-27d1t01.flac
0b05a16ede46940fa564898a694ad433 *gd71-04-27d1t02.flac
8d3bbe3aac69150e46410681d6f75035 *gd71-04-27d1t03.flac
643b7ffe82d053fd58e3b1420ab63ac3 *gd71-04-27d1t04.flac
cd00f9b6d78b5d4e0128a247f598758e *gd71-04-27d1t05.flac
4de7ca8453a94ad7a68aa25deac3cdd9 *gd71-04-27d1t06.flac
f6ce683b5a2fc33d40552fe7a3f7b54c *gd71-04-27d1t07.flac
c2910e5d000940256780b83646f9b51a *gd71-04-27d1t08.flac
09b819b1b6a84d333d2f8e508654be69 *gd71-04-27d1t09.flac
2fbf279e779bb5e591b0679c33021dc2 *gd71-04-27d1t10.flac
6265bceaac54aff2493862bf70e19c88 *gd71-04-27d1t11.flac
fe9de941d4ce531da2da755c5207cf7d *gd71-04-27d1t12.flac
bb6d126ae46891cd8f8d4d82d6091bd8 *gd71-04-27d2t01.flac
105b244b81db44763fb3651591cd6969 *gd71-04-27d2t02.flac
2be8571401449740e4633dd9c2e57279 *gd71-04-27d2t03.flac
d03ff8a07a27ec3e094ce78cb97eebf3 *gd71-04-27d2t04.flac
74dbc4c760953076232b2321d1b79bb7 *gd71-04-27d2t05.flac
cd2b9989f597dbf96051f34ec40eeca8 *gd71-04-27d2t06.flac
bfa3abf54690114f3637958f5559dd16 *gd71-04-27d2t07.flac
c787d3a6e7b7822da56d1d0f098c8569 *gd71-04-27d2t08.flac
01594922746208bb7358823307708aa4 *gd71-04-27d2t09.flac
3e464a0834e5ac1bc1b9e994959f258c *gd71-04-27d2t10.flac
755825495603687c3be98561ff837b75 *gd71-04-27d2t11.flac
5bd5bd8513695b87d01eb854d7670acd *gd71-04-27d2t12.flac
8f9f2667356a325d4971598ac86aecb8 *gd71-04-27d3t01.flac
85777e5bdb9fec0be3db8430aad11725 *gd71-04-27d3t02.flac
e6a5ff590483b7b852b5ade6f70bf3eb *gd71-04-27d3t03.flac
717ac067c6d62e4561e454563a186e9b *gd71-04-27d3t04.flac

Comments
Add Comment
Other Sources (comments)
MSR 7 inch (7.5 ips) Revox... (6) SBD> MR> R> D> CD; EAC >... (1) MR> CDR and MR> R> CDR;... (2) mixed reel sources (see... (1) flac24; Recording... (0) flac16; Lineage:[email protected] (0) flac16; Recording... (0) flac16; Source Info:... (0)
Date User Comment