Browse Collections Artists Sources   Search Dates

Add Show    List Management    Help


Grateful Dead 04/27/71
Fillmore East, New York, NY
Comments Add Comment    Source Collectors    Add to Collection    Add to Want List    History
Source # 106562 Other Sources
Entered by dr.unclear
Checksums ffp , flac-md5
Disc Counts 0 / 0
Media Size
Date Circulated
Date Added
03/16/2010
03/16/2010
Source Summary flac24; Recording Info Source One: SBD -> Shure Line Mixers -> Advent Advocate Dolby B Unit -> Master Reel (Sony Deck - BASF Tapes - 1/4 Track - 7 1/2 ips) Recording Info Source Two: SBD -> Shure Line Mixers -> Advent Advocate Dolby B Unit -> Master Reel (Sony Deck - BASF Tapes - 1/4 Track - 7 1/2 ips) -> Reel (Maxell Tape - 1/4 Track - 7 1/2 ips) Transfer Info Source One: Master Reel (Teac A-6100) -> Advent Advocate Dolby B Unit -> Fostex FR-2LE -> WAV (24bit/96k); Transfer Info Source Two: Reel (Teac A-6100) -> Advent Advocate Dolby B Unit -> Fostex FR-2LE -> WAV (24bit/96k) Mastering Info: WAV -> Adobe Audition v3.0 -> Samplitude Professional v11.03 -> FLAC/24; Reels Baked and Transferred By David Gans All Mastering By Charlie Miller 
  Archive
Source Information - Download Text | Download Zip
Grateful Dead - April 27, 1971
Fillmore East - New York, NY

Recording Info Source One:
SBD -> Shure Line Mixers -> Advent Advocate Dolby B Unit ->
Master Reel (Sony Deck - BASF Tapes - 1/4 Track - 7 1/2 ips)

Recording Info Source Two:
SBD -> Shure Line Mixers -> Advent Advocate Dolby B Unit ->
Master Reel (Sony Deck - BASF Tapes - 1/4 Track - 7 1/2 ips) ->
Reel (Maxell Tape - 1/4 Track - 7 1/2 ips)

Transfer Info Source One:
Master Reel (Teac A-6100) -> Advent Advocate Dolby B Unit ->
Fostex FR-2LE -> WAV (24bit/96k)

Transfer Info Source Two:
Reel (Teac A-6100) -> Advent Advocate Dolby B Unit ->
Fostex FR-2LE -> WAV (24bit/96k)

Mastering Info:
WAV -> Adobe Audition v3.0 -> Samplitude Professional v11.03 -> FLAC/24
(1 DVD FLAC)

Reels Baked and Transferred By David Gans
All Mastering By Charlie Miller
[email protected]
March 15, 2010

Patch Info:
SBD -> Master Reel -> CD supplies:
Hard To Handle (0:00 - 0:13)
Sugar Magnolia (0:00 - 0:52)
Bird Song (4:00 - 5:42)
Help Me Rhonda (3:23 - 5:52)
Sing Me Back Home (0:00 - 0:32)
Uncle John's Band (1:44 - 1:45)
Turn On Your Lovelight (20:44 - end of track)

Notes:
-- Set 2 is seamless
-- Truckin' through Loser from source one (Master Reel)
-- Hard To Handle through end of show from source two (1st Gen Reel)
-- Patch source also provides some Set 1 tunings due to tape bleed through
-- Some patches are not very smooth due to extrenme mix differences
-- Beach Boys play on Searchin' through Johnny B. Goode
-- Good Vibrations and I Get Around without The Grateful Dead
-- Thanks to Bill Gadsden for supplying the reels
-- Thanks to digitalrbb for supplying the patch source
-- Thanks to Neil Sturtevant for rebuilding the dolby unit
-- Thanks to Joe B. Jones for his help with the pitch correction

Set 1:
s1t01 - Tuning
s1t02 - Truckin'
s1t03 - Mama Tried
s1t04 - Bertha
s1t05 - Next Time You See Me
s1t06 - Cumberland Blues
s1t07 - Me And Bobby McGee
s1t08 - Loser
s1t09 - Hard To Handle
s1t10 - China Cat Sunflower ->
s1t11 - I Know You Rider
s1t12 - Casey Jones

Set 2:
s2t01 - Sugar Magnolia
s2t02 - Deal
s2t03 - Me And My Uncle
s2t04 - Bird Song
s2t05 - Playing In The Band
s2t06 - Dire Wolf
s2t07 - Searchin'
s2t08 - Riot In Cell Block #9
s2t09 - Good Vibrations
s2t10 - I Get Around
s2t11 - Help Me Rhonda
s2t12 - Okie From Muskogee
s2t13 - Johnny B. Goode
s2t14 - Sing Me Back Home
s2t15 - Uncle John's Band
s2t16 - Turn On Your Lovelight


SHNTOOL OUTPUT:
    length     expanded size   cdr  WAVE problems filename
     1:54.796      66122372    cxx   --   -----   gd71-04-27s1t01.wav
    10:40.993     369211940    cxx   --   -----   gd71-04-27s1t02.wav
     3:12.554     110911280    cxx   --   -----   gd71-04-27s1t03.wav
     6:31.342     225412970    cxx   --   -----   gd71-04-27s1t04.wav
     4:36.033     158995214    cxx   --   -----   gd71-04-27s1t05.wav
     6:26.417     222576476    cxx   --   -----   gd71-04-27s1t06.wav
     6:22.925     220564694    cxx   --   -----   gd71-04-27s1t07.wav
     8:30.280     293921186    cxx   --   -----   gd71-04-27s1t08.wav
    10:06.454     349317548    cxx   --   -----   gd71-04-27s1t09.wav
     4:46.877     165241232    cxx   --   -----   gd71-04-27s1t10.wav
     5:53.237     203464820    cxx   -e   -----   gd71-04-27s1t11.wav
     6:49.087     235633916    cxx   --   -----   gd71-04-27s1t12.wav
     7:07.243     246091994    cxx   --   -----   gd71-04-27s2t01.wav
     5:52.390     202976702    cxx   --   -----   gd71-04-27s2t02.wav
     3:47.024     130766018    cxx   --   -----   gd71-04-27s2t03.wav
     8:19.759     287861156    cxx   --   -----   gd71-04-27s2t04.wav
     7:36.362     262864736    cxx   --   -----   gd71-04-27s2t05.wav
     7:46.637     268783016    cxx   --   -----   gd71-04-27s2t06.wav
     7:27.557     257792828    cxx   --   -----   gd71-04-27s2t07.wav
     7:48.017     269578034    cxx   --   -----   gd71-04-27s2t08.wav
     5:39.830     195741986    cxx   --   -----   gd71-04-27s2t09.wav
     2:31.453      87236858    cxx   --   -----   gd71-04-27s2t10.wav
     7:17.276     251870822    cxx   --   -----   gd71-04-27s2t11.wav
     3:45.287     129765170    cxx   --   -----   gd71-04-27s2t12.wav
     8:46.672     303362924    cxx   --   -----   gd71-04-27s2t13.wav
    10:52.981     376117364    cxx   --   -----   gd71-04-27s2t14.wav
     6:11.642     214065992    cxx   --   -----   gd71-04-27s2t15.wav
    22:19.904     771784856    cxx   --   -----   gd71-04-27s2t16.wav
   199:01.029    6878034104 B                     (totals for 28 files)
Show Checksums
ffp
gd71-04-27s1t01.flac:1669904a8bcd54dcc748297770e9e0af
gd71-04-27s1t02.flac:59466cf9aa3cd6543d5dab70d3912fbe
gd71-04-27s1t03.flac:6b6e197bfd97af4f9c9f6e554d468b67
gd71-04-27s1t04.flac:e4e75195c4baebb762806911e115962d
gd71-04-27s1t05.flac:30ee8ab70ef51ee52d47271b5750e173
gd71-04-27s1t06.flac:ae4908d4bf08c4620d23f9ccb1ad0923
gd71-04-27s1t07.flac:e7f35a7d97bb497bc811404ecc85226b
gd71-04-27s1t08.flac:8e94c9e7804c6f21fb28cb1de0fcc3e6
gd71-04-27s1t09.flac:e44262d04cc8c667855e617496b08de5
gd71-04-27s1t10.flac:2da4b964b2c040b1ab1e671c7ac684f2
gd71-04-27s1t11.flac:b1931b95590a724ef6240414a701ed13
gd71-04-27s1t12.flac:b9d28c1eb6a2cfb2dee07dd67eb2d017
gd71-04-27s2t01.flac:6c54309816f3e9b96f83173c02611de1
gd71-04-27s2t02.flac:42bee7755ca12f9edb832df6fa1bac74
gd71-04-27s2t03.flac:4e127f2371b3e27830fb5289d1cb292e
gd71-04-27s2t04.flac:7d2c8409cc38f3afdd7bb62651055d48
gd71-04-27s2t05.flac:f21ae4ea40c7a3722b112054072e3aac
gd71-04-27s2t06.flac:4eb4c535b16a641022755e52cdcba135
gd71-04-27s2t07.flac:c4115a3ef3f123c70e7ab3aef5a65f55
gd71-04-27s2t08.flac:2fab0391926453d3d3052ad3808f12cc
gd71-04-27s2t09.flac:93b4a63c47b951471513904b7dd0b754
gd71-04-27s2t10.flac:14b69d68bf9fedfd707301bf86923eb2
gd71-04-27s2t11.flac:8606c194299b4a7652f3ea839acd4577
gd71-04-27s2t12.flac:5fe5c23f07b42df7984f5f3119a67f8e
gd71-04-27s2t13.flac:4890cc8acf9be4a249d19e814477f2e9
gd71-04-27s2t14.flac:11aac6e2d518817daad20ff5125d0fd3
gd71-04-27s2t15.flac:3e0972a20609dad4c15bbf15d73d5379
gd71-04-27s2t16.flac:1534be0878e4330537b54253aca3140b
flac-md5
584f0ffa24b871dba7f347eeed335893 *gd71-04-27s1t01.flac
5d3919d59856be9e5c8aaa2652fb2a17 *gd71-04-27s1t02.flac
0dc71be3fa38ccf491186f38bcb2acd6 *gd71-04-27s1t03.flac
462c7896ae5a9385fcf73f451c6893ba *gd71-04-27s1t04.flac
dab69766b1cebb9855af408d794b2a6d *gd71-04-27s1t05.flac
ddb87cdce620895044a404fc9e499660 *gd71-04-27s1t06.flac
8306d113de00ec45f47bd2160b6e8ef7 *gd71-04-27s1t07.flac
0e3019bb714daec12f14e35f3c7933c5 *gd71-04-27s1t08.flac
0b627b3d0f84984763c354d59767c575 *gd71-04-27s1t09.flac
c094c9f977f8f07d611aef8c7e71dca8 *gd71-04-27s1t10.flac
3c8d60ce9ae4654d87e99967378cd40f *gd71-04-27s1t11.flac
a87e2d3b7da90e9f59a3f03bfef9ebc5 *gd71-04-27s1t12.flac
d78f30b7bef3ff15c09e715f2cf014a4 *gd71-04-27s2t01.flac
dd4cda624c073ab29b42cbaa470fe6ac *gd71-04-27s2t02.flac
8d72a5b88eeead61f9574a38061ca7dd *gd71-04-27s2t03.flac
712c1956db29b71960b8d3c6c3c2711c *gd71-04-27s2t04.flac
f7040caf1d02514bb9ce58153479b462 *gd71-04-27s2t05.flac
8be6da3e9f6a4ed83669c8c8e07ef16e *gd71-04-27s2t06.flac
7e6bef322504c5c0f5f9ebbb229b8896 *gd71-04-27s2t07.flac
01e293c53b4495f069b8975338fc0f77 *gd71-04-27s2t08.flac
af5ab9ad36ec3ee4829c2ff5e7eb8f98 *gd71-04-27s2t09.flac
0a30b587c5ce0d1a6013b82ee9aeefd0 *gd71-04-27s2t10.flac
b0cd58bfe4ddedad617134d6173e6401 *gd71-04-27s2t11.flac
3ae18da781a963ccd7aaef3ba139782e *gd71-04-27s2t12.flac
ea0a87c2174844afa9365410ac48650b *gd71-04-27s2t13.flac
64c9036d8aabdb2214061624e0d741ec *gd71-04-27s2t14.flac
4a62c6d21c4b7e73e4a369ee0a894651 *gd71-04-27s2t15.flac
20cf0115526a6e27f209beefe7e331a0 *gd71-04-27s2t16.flac

Comments
Add Comment
Other Sources (comments)
MSR 7 inch (7.5 ips) Revox... (6) SBD> MR> R> D> CD; EAC >... (1) MR> CDR and MR> R> CDR;... (2) mixed reel sources (see... (1) flac16; Recording... (0) flac16; Lineage:[email protected] (0) flac16; Recording... (0) flac16; Source Info:... (0)
Date User Comment