Browse Collections Artists Sources   Search Dates

Add Show    List Management    Help


Jerry Garcia Band 02/24/80
Gym, S.U.N.Y., Stony Brook, NY
Comments Add Comment    Source Collectors    Add to Collection    Add to Want List    History
Source # 106582 Other Sources
Entered by Joe Jupille
Checksums flac-md5
Disc Counts 2 / 2
Media Size
Date Circulated
Date Added
03/17/2010
03/17/2010
Source Summary JGB; flac2496; Bob Morris's (FOB) Unknown mics (2) > Cassette Master (Marantz Superscope CD320/Maxell UDXLI); Cassette Master (Nakamichi DR-1) > Korg MR-1000 (1-bit/5.6MHz) > Audiogate (1-bit/5.6MHz > 24-bit/96KHz) > Soundforge 9.0 (edits). Taped and transferred by Bob Morris. 
Source Information - Download Text | Download Zip
Jerry Garcia Band - February 24, 1980 - 24/96
Gymnasium - SUNY, Stony Brook, New York

(FOB) Unknown mics (2) > Cassette Master
(Marantz Superscope CD320/Maxell UDXLI)

Cassette Master (Nakamichi DR-1) > Korg MR-1000 (1-bit/5.6MHz) >
Audiogate (1-bit/5.6MHz > 24-bit/96KHz) > Soundforge 9.0 (edits)

Disc One

Set 1:

01 tuning
02 Sugaree
03 Catfish John
04 How Sweet It Is
05 Sitting in Limbo
06 That's Alright Mama

Disc Two

Set 2:

01 tuning
02 That's What Love Will Make You Do
03 When I Paint My Masterpiece
04 Tore Up Over You
05 I'll Take A Melody
06 The Harder They Come

Encore
07 tuning
08 Midnight Moonlight

Notes - Moonlight patched (7:14-7:53) w/id 35140 SonyECM990 Connor.
Recorded by Bob Morris - thanks to Sam for help.
Transfer (Jul 2009) & 24/96 edit/patch (Jan 2010) by Bob Morris.


length     expanded size    cdr  WAVE problems  fmt   ratio  filename
     1:17.088      44402732 B   cxx   --   ---xx   flac  0.6737  jgb80-02-24d1t01.flac
     1:17.088      44402892 B   cxx   -e   -----    wav  1.0000  jgb80-02-24d1t01.wav
    15:22.144     531154988 B   cxx   --   ---xx   flac  0.6843  jgb80-02-24d1t02.flac
    15:22.144     531155188 B   cxx   -e   -----    wav  1.0000  jgb80-02-24d1t02.wav
    10:09.131     350859308 B   cxx   --   ---xx   flac  0.6782  jgb80-02-24d1t03.flac
    10:09.131     350859508 B   cxx   -e   -----    wav  1.0000  jgb80-02-24d1t03.wav
     8:39.723     299360300 B   cxx   --   ---xx   flac  0.6734  jgb80-02-24d1t04.flac
     8:39.723     299360460 B   cxx   -e   -----    wav  1.0000  jgb80-02-24d1t04.wav
    12:05.333     417792044 B   cxx   --   ---xx   flac  0.6544  jgb80-02-24d1t05.flac
    12:05.333     417792204 B   cxx   -e   -----    wav  1.0000  jgb80-02-24d1t05.wav
     8:34.091     296116268 B   cxx   --   ---xx   flac  0.6713  jgb80-02-24d1t06.flac
     8:34.091     296116470 B   cxx   -e   -----    wav  1.0000  jgb80-02-24d1t06.wav
     1:44.320      60088364 B   cxx   --   ---xx   flac  0.6288  jgb80-02-24d2t01.flac
     1:44.320      60088568 B   cxx   -e   -----    wav  1.0000  jgb80-02-24d2t01.wav
     9:28.043     327192620 B   cxx   --   ---xx   flac  0.6475  jgb80-02-24d2t02.flac
     9:28.043     327192824 B   cxx   -e   -----    wav  1.0000  jgb80-02-24d2t02.wav
     9:03.221     312895532 B   cxx   --   ---xx   flac  0.6502  jgb80-02-24d2t03.flac
     9:03.221     312895694 B   cxx   -e   -----    wav  1.0000  jgb80-02-24d2t03.wav
    10:27.200     361267244 B   cxx   --   ---xx   flac  0.6661  jgb80-02-24d2t04.flac
    10:27.200     361267406 B   cxx   -e   -----    wav  1.0000  jgb80-02-24d2t04.wav
    12:54.485     446103596 B   cxx   --   ---xx   flac  0.6596  jgb80-02-24d2t05.flac
    12:54.485     446103800 B   cxx   -e   -----    wav  1.0000  jgb80-02-24d2t05.wav
    12:16.469     424206380 B   cxx   --   ---xx   flac  0.6638  jgb80-02-24d2t06.flac
    12:16.469     424206542 B   cxx   -e   -----    wav  1.0000  jgb80-02-24d2t06.wav
     0:37.632      21676076 B   cxx   --   ---xx   flac  0.6400  jgb80-02-24d2t07.flac
     0:37.632      21676236 B   cxx   -e   -----    wav  1.0000  jgb80-02-24d2t07.wav
     7:53.295     272618108 B   cxx   --   ---xx   flac  0.6595  jgb80-02-24d2t08.flac
     7:53.295     272618334 B   cxx   -e   -----    wav  1.0000  jgb80-02-24d2t08.wav
   241:04.350    8331469686 B                            0.8323  (28 files)


Show Checksums
flac-md5
2254e169163c4d8f8e29ee943bd1b813 *jgb80-02-24d1t01.flac
f13e6d5c589bb3e54812c28031d2b9a6 *jgb80-02-24d1t02.flac
cbc7739937e0be10ef36e2e8b0169c0e *jgb80-02-24d1t03.flac
ea9702e1076162fe32c7c63898ac5eb1 *jgb80-02-24d1t04.flac
16b1b69661f8c153c9835315543229f4 *jgb80-02-24d1t05.flac
59e33a00cd8ea3fb9e8805f0f1e87a3f *jgb80-02-24d1t06.flac
bd08a4d2c6db9516fddd5fd08468be95 *jgb80-02-24d2t01.flac
897e88826577aa8eb920a2b36a5410c3 *jgb80-02-24d2t02.flac
6f41e17909d503aaad5debaa270a6f56 *jgb80-02-24d2t03.flac
e53d63177f65e5c5d8d13b411437e86d *jgb80-02-24d2t04.flac
7a0218f2a4b2b2376b9fc28d766269f9 *jgb80-02-24d2t05.flac
ee3738057bb62f0bb38a51d98d97537c *jgb80-02-24d2t06.flac
52bc7d62535fe21b18dca13cef4564c8 *jgb80-02-24d2t07.flac
4d1f904ff27573649fcfaeac81b5facb *jgb80-02-24d2t08.flac

Comments
Add Comment
Other Sources (comments)
JGB; flac1644; Bob Morris's... (0)
Date User Comment