Browse Collections Artists Sources   Search Dates

Add Show    List Management    Help


Grateful Dead 09/09/87
Providence Civic Center, Providence, RI
Comments Add Comment    Source Collectors    Add to Collection    Add to Want List    History
Source # 106591 Other Sources
Entered by Darryl Hinko
Checksums flac-md5 , ffp
Disc Counts 2 / 2
Media Size
Date Circulated
Date Added
03/17/2010
03/17/2010
Source Summary flac16; Nakamichi CM-300 x2 > Cassette Master (Sony TCD5M/Maxell XLII 90) Cassette Master (Nakamichi DR-1) > Korg MR-1000 (1-bit/5.6MHz) > Audiogate (1-bit/5.6MHz > 16-bit/44.1KHz) > cdwav (edits) Recorded by Bob Morris 
  Archive
Source Information - Download Text | Download Zip
Grateful Dead - September 9, 1987
Providence Civic Center - Providence, Rhode Island

Nakamichi CM-300 x2 > Cassette Master
(Sony TCD5M/Maxell XLII 90)

Cassette Master (Nakamichi DR-1) > Korg MR-1000 (1-bit/5.6MHz) >
Audiogate (1-bit/5.6MHz > 16-bit/44.1KHz) > cdwav (edits)

Disc One

Set 1:

01 tuning
02 Hey Pockey Way
03 Jack Straw
04 West L.A. Fadeaway
05 When I Paint My Masterpiece
06 Friend of the Devil
07 Cassidy
08 /Althea
09 "We want Phil", "Phil says, 'no business'"
10 Greatest Story Ever Told ->
11 Devil with the Blue Dress ->
12 Good Golly Miss Molly ->
13 Devil with the Blue Dress

Disc Two

Set 2:

01 tuning
02 China Cat Sunflower ->
03 I Know You Rider ->
04 Playing in the Band ->
05 China Doll ->
06 Drums ->
07 Space ->
08 The Wheel ->
09 Gimme Some Lovin' ->
10 Throwing Stones ->
11 Not Fade Away

Encore:
12 Not Fade Away ->
13 The Mighty Quinn

Notes - Tape flip between Drums and Space.
Recorded by Bob Morris -- thanks to Sam for help.
Transferred & edited by Bob Morris, November 2009.
Flaced and shared by Chuck T./Crazyfingers


length     expanded size    cdr  WAVE problems  fmt   ratio  filename
     0:35.74        6348092 B   ---   --   ---xx   flac  0.5089  gd87-09-09d1t01.flac
     0:35.74        6348092 B   ---   --   -----    wav  1.0000  gd87-09-09d1t01.wav
     4:48.46       50911436 B   ---   --   ---xx   flac  0.5702  gd87-09-09d1t02.flac
     4:48.46       50911436 B   ---   --   -----    wav  1.0000  gd87-09-09d1t02.wav
     6:02.61       64000316 B   ---   --   ---xx   flac  0.5690  gd87-09-09d1t03.flac
     6:02.61       64000316 B   ---   --   -----    wav  1.0000  gd87-09-09d1t03.wav
     7:29.47       79314188 B   ---   --   ---xx   flac  0.5620  gd87-09-09d1t04.flac
     7:29.47       79314188 B   ---   --   -----    wav  1.0000  gd87-09-09d1t04.wav
     4:33.48       48270140 B   ---   --   ---xx   flac  0.5598  gd87-09-09d1t05.flac
     4:33.48       48270140 B   ---   --   -----    wav  1.0000  gd87-09-09d1t05.wav
     8:43.56       92388956 B   ---   --   ---xx   flac  0.5430  gd87-09-09d1t06.flac
     8:43.56       92388956 B   ---   --   -----    wav  1.0000  gd87-09-09d1t06.wav
     6:23.63       67709420 B   ---   --   ---xx   flac  0.5548  gd87-09-09d1t07.flac
     6:23.63       67709420 B   ---   --   -----    wav  1.0000  gd87-09-09d1t07.wav
     6:58.11       73761116 B   ---   --   ---xx   flac  0.5437  gd87-09-09d1t08.flac
     6:58.11       73761116 B   ---   --   -----    wav  1.0000  gd87-09-09d1t08.wav
     0:39.29        6947852 B   ---   --   ---xx   flac  0.5188  gd87-09-09d1t09.flac
     0:39.29        6947852 B   ---   --   -----    wav  1.0000  gd87-09-09d1t09.wav
     3:52.03       40931900 B   ---   --   ---xx   flac  0.5684  gd87-09-09d1t10.flac
     3:52.03       40931900 B   ---   --   -----    wav  1.0000  gd87-09-09d1t10.wav
     2:07.08       22421660 B   ---   --   ---xx   flac  0.5750  gd87-09-09d1t11.flac
     2:07.08       22421660 B   ---   --   -----    wav  1.0000  gd87-09-09d1t11.wav
     0:55.57        9836108 B   ---   --   ---xx   flac  0.5802  gd87-09-09d1t12.flac
     0:55.57        9836108 B   ---   --   -----    wav  1.0000  gd87-09-09d1t12.wav
     1:00.48       10696940 B   ---   --   ---xx   flac  0.5831  gd87-09-09d1t13.flac
     1:00.48       10696940 B   ---   --   -----    wav  1.0000  gd87-09-09d1t13.wav
     1:09.49       12286892 B   ---   --   ---xx   flac  0.5066  gd87-09-09d2t01.flac
     1:09.49       12286892 B   ---   --   -----    wav  1.0000  gd87-09-09d2t01.wav
     5:30.59       58350812 B   ---   --   ---xx   flac  0.5553  gd87-09-09d2t02.flac
     5:30.59       58350812 B   ---   --   -----    wav  1.0000  gd87-09-09d2t02.wav
     4:36.69       48848732 B   ---   --   ---xx   flac  0.5766  gd87-09-09d2t03.flac
     4:36.69       48848732 B   ---   --   -----    wav  1.0000  gd87-09-09d2t03.wav
     9:17.53       98379500 B   ---   --   ---xx   flac  0.5505  gd87-09-09d2t04.flac
     9:17.53       98379500 B   ---   --   -----    wav  1.0000  gd87-09-09d2t04.wav
     6:32.05       69160604 B   ---   --   ---xx   flac  0.5259  gd87-09-09d2t05.flac
     6:32.05       69160604 B   ---   --   -----    wav  1.0000  gd87-09-09d2t05.wav
     6:33.40       69419324 B   ---   --   ---xx   flac  0.5033  gd87-09-09d2t06.flac
     6:33.40       69419324 B   ---   --   -----    wav  1.0000  gd87-09-09d2t06.wav
     6:25.19       67958732 B   ---   --   ---xx   flac  0.4678  gd87-09-09d2t07.flac
     6:25.19       67958732 B   ---   --   -----    wav  1.0000  gd87-09-09d2t07.wav
     4:30.64       47778572 B   ---   --   ---xx   flac  0.5404  gd87-09-09d2t08.flac
     4:30.64       47778572 B   ---   --   -----    wav  1.0000  gd87-09-09d2t08.wav
     4:22.44       46320332 B   ---   --   ---xx   flac  0.5552  gd87-09-09d2t09.flac
     4:22.44       46320332 B   ---   --   -----    wav  1.0000  gd87-09-09d2t09.wav
     8:46.31       92859356 B   ---   --   ---xx   flac  0.5633  gd87-09-09d2t10.flac
     8:46.31       92859356 B   ---   --   -----    wav  1.0000  gd87-09-09d2t10.wav
     9:45.69      103356332 B   ---   --   ---xx   flac  0.5481  gd87-09-09d2t11.flac
     9:45.69      103356332 B   ---   --   -----    wav  1.0000  gd87-09-09d2t11.wav
     1:20.63       14260220 B   ---   --   ---xx   flac  0.5431  gd87-09-09d2t12.flac
     1:20.63       14260220 B   ---   --   -----    wav  1.0000  gd87-09-09d2t12.wav
     4:20.19       45908732 B   ---   --   ---xx   flac  0.5696  gd87-09-09d2t13.flac
     4:20.19       45908732 B   ---   --   -----    wav  1.0000  gd87-09-09d2t13.wav
   254:48.20     2696852528 B                            0.7737  (52 files)
Show Checksums
flac-md5
ab49ff5c0b73c9bd4ab3102607040939 *gd87-09-09d1t01.flac
0b01713cb749f8ca6170c750f7639227 *gd87-09-09d1t02.flac
64e477e6448e1f14a6198eecf01e584e *gd87-09-09d1t03.flac
16253a2b96b1dfbbad7798ee3242590a *gd87-09-09d1t04.flac
0e31c7c69123abc34d51511782de8bd9 *gd87-09-09d1t05.flac
34bf5d404aac2e4433f494083279fa69 *gd87-09-09d1t06.flac
bd347831538673f2038f4992ac347a73 *gd87-09-09d1t07.flac
60896a65f78ab8a8c79d8a2cc44b616e *gd87-09-09d1t08.flac
974dfcc0e03c09005cec34855f000bba *gd87-09-09d1t09.flac
5b754c31c40086dc288c454e3b1fefdd *gd87-09-09d1t10.flac
609f8f9119f8fcb74078df79b6bb7100 *gd87-09-09d1t11.flac
96de95c011f1e5c1ceb050d5a1f86ece *gd87-09-09d1t12.flac
783e47b2f4b54b7bf4e4b1cf76fc7d6c *gd87-09-09d1t13.flac
73cec7b21c4f4a5e4ab89b280300c8d5 *gd87-09-09d2t01.flac
f21142118b85439243aaf1a43b65b4f6 *gd87-09-09d2t02.flac
fba522e42d48fb61b1712b9b10053ca7 *gd87-09-09d2t03.flac
4dd48647163d95c0fb58d4a555060570 *gd87-09-09d2t04.flac
3649bb63ab9ac487610845d81a334ca1 *gd87-09-09d2t05.flac
f72b14cd5465a4132990f98391c7c6ce *gd87-09-09d2t06.flac
99fac039fca7bce5eafe8ce01cd0dd4b *gd87-09-09d2t07.flac
d723d9da29a6bec8511bdde96006e6d4 *gd87-09-09d2t08.flac
806d9ebfb63c7286e40519fd220c7b26 *gd87-09-09d2t09.flac
2af9742eb2f2b0a298dfd5e590dd3b23 *gd87-09-09d2t10.flac
c4a8e9f6d0ca6513f748af7f22b9ce23 *gd87-09-09d2t11.flac
420500444d18b7f97aea740865048c45 *gd87-09-09d2t12.flac
e85fd7ba81a9315128b7547a9624965e *gd87-09-09d2t13.flac
ffp
gd87-09-09d1t01.flac:0d7e70552e8c40315314c3569e882ad5
gd87-09-09d1t02.flac:3d5b784abb4983b2889c2bc479ecb086
gd87-09-09d1t03.flac:1cdc4f0d987652f45fd9188fe46b2f70
gd87-09-09d1t04.flac:03bf71388c5dfac79492f01a724da797
gd87-09-09d1t05.flac:14b0c6bd00d1675db198a89a7dc8875a
gd87-09-09d1t06.flac:368657d0b65db130a610324c0c78e3f2
gd87-09-09d1t07.flac:60e76ef7c3524884aefc746433147541
gd87-09-09d1t08.flac:1022036a2bbed6fc0494c304c9482f0b
gd87-09-09d1t09.flac:5cab8e01121bd8364596b0e6732eca0c
gd87-09-09d1t10.flac:89becace2e7c880ecb6da046b252dc95
gd87-09-09d1t11.flac:e4ae9b397a46973907124801d184804c
gd87-09-09d1t12.flac:00fc319801f520714b469379e59c4ddb
gd87-09-09d1t13.flac:df3491cf716930290601c2bf4ee6beb3
gd87-09-09d2t01.flac:c28a0bea3486cd2314ff593ea6771e34
gd87-09-09d2t02.flac:2f6516b25cebb47496bdee7ca8a78417
gd87-09-09d2t03.flac:ddb1e668ec34cba3ab0b1843c047834f
gd87-09-09d2t04.flac:52649334865dfe3a71b1a38b02bbf7f2
gd87-09-09d2t05.flac:5e70c63d2104a331694adc84cdd2f694
gd87-09-09d2t06.flac:7e8470fc27031fa3647907232882344b
gd87-09-09d2t07.flac:d841d46df175835694adfeda905b909c
gd87-09-09d2t08.flac:e8f0f45d92394e70f9904c00323a4f6e
gd87-09-09d2t09.flac:3af7fbdc518ccaee4e22cf2477e5f7de
gd87-09-09d2t10.flac:ad78e28f3435f39820f30d9b6b597bb5
gd87-09-09d2t11.flac:b8859616b318a07025c212ccdbfb1cdf
gd87-09-09d2t12.flac:5a198aee6a64c493c01703459992d964
gd87-09-09d2t13.flac:65895d2e436b4afcbef3d190251e6fe9

Comments
Add Comment
Other Sources (comments)
Nak 300's > Sony D5 Casette... (1) Sony ECM220T mics from... (0) Source: Audience (but see... (0) Recording Info: SBD ->... (0) flac16; AUD,... (0) flac16; taper : Joe... (0) flac16; Recording... (0) flac16; Recording... (0) flac16; Recording... (0)
Date User Comment