Browse Collections Artists Sources   Search Dates

Add Show    List Management    Help


Grateful Dead 09/08/87
Providence Civic Center, Providence, RI
Comments Add Comment    Source Collectors    Add to Collection    Add to Want List    History
Source # 106592 Other Sources
Entered by Darryl Hinko
Checksums flac-md5 , ffp
Disc Counts 2 / 2
Media Size
Date Circulated
Date Added
03/17/2010
03/17/2010
Source Summary flac16; Nakamichi CM-300 x2 > Cassette Master (Sony TCD5M/Maxell XLII 90) Cassette Master (Nakamichi DR-1) > Korg MR-1000 (1-bit/5.6MHz) > Audiogate (1-bit/5.6MHz > 16-bit/44.1KHz) > cdwav (edits); Recorded by Bob Morris 
  Archive
Source Information - Download Text | Download Zip
Grateful Dead - September 8, 1987
Providence Civic Center - Providence, Rhode Island

Nakamichi CM-300 x2 > Cassette Master
(Sony TCD5M/Maxell XLII 90)

Cassette Master (Nakamichi DR-1) > Korg MR-1000 (1-bit/5.6MHz) >
Audiogate (1-bit/5.6MHz > 16-bit/44.1KHz) > cdwav (edits)

Disc One

Set 1:

01 Mississippi Half-step ->
02 Little Red Rooster
03 They Love Each Other
04 Queen Jane Approximately
05 Row Jimmy
06 tuning
07 The Music Never Stopped ->
08 Don't Ease Me In

Set 2:

09 tuning
10 Hell in a Bucket ->
11 Fire on the Mountain

Disc Two

Set 2 (cont.):

01 Looks Like Rain ->
02 Terrapin ->
03 Drums ->
04 Space ->
05 The Other One ->
06 Stella Blue ->
07 Lovelight

Encore:
08 tuning
09 Black Muddy River

Notes - Tape flip between Drums and Space.
Recorded by Bob Morris -- thanks to Sam for help.
Transferred & edited by Bob M 11/09.
Flaced and shared by Chuck T./Crazyfingers



length     expanded size    cdr  WAVE problems  fmt   ratio  filename
     8:13.23       87019340 B   ---   --   ---xx   flac  0.5472  gd87-09-08d1t01.flac
     8:13.23       87019340 B   ---   --   -----    wav  1.0000  gd87-09-08d1t01.wav
    10:01.74      106190492 B   ---   --   ---xx   flac  0.5549  gd87-09-08d1t02.flac
    10:01.74      106190492 B   ---   --   -----    wav  1.0000  gd87-09-08d1t02.wav
     8:46.44       92889932 B   ---   --   ---xx   flac  0.5323  gd87-09-08d1t03.flac
     8:46.44       92889932 B   ---   --   -----    wav  1.0000  gd87-09-08d1t03.wav
     5:32.37       58651868 B   ---   --   ---xx   flac  0.5420  gd87-09-08d1t04.flac
     5:32.37       58651868 B   ---   --   -----    wav  1.0000  gd87-09-08d1t04.wav
     9:32.64      101051372 B   ---   --   ---xx   flac  0.5281  gd87-09-08d1t05.flac
     9:32.64      101051372 B   ---   --   -----    wav  1.0000  gd87-09-08d1t05.wav
     0:15.47        2756588 B   ---   --   ---xx   flac  0.4465  gd87-09-08d1t06.flac
     0:15.47        2756588 B   ---   --   -----    wav  1.0000  gd87-09-08d1t06.wav
     7:11.13       76059020 B   ---   --   ---xx   flac  0.5541  gd87-09-08d1t07.flac
     7:11.13       76059020 B   ---   --   -----    wav  1.0000  gd87-09-08d1t07.wav
     3:26.34       36418412 B   ---   --   ---xx   flac  0.5666  gd87-09-08d1t08.flac
     3:26.34       36418412 B   ---   --   -----    wav  1.0000  gd87-09-08d1t08.wav
     0:58.64       10381772 B   ---   --   ---xx   flac  0.4796  gd87-09-08d1t09.flac
     0:58.64       10381772 B   ---   --   -----    wav  1.0000  gd87-09-08d1t09.wav
     5:52.66       62248076 B   ---   --   ---xx   flac  0.5880  gd87-09-08d1t10.flac
     5:52.66       62248076 B   ---   --   -----    wav  1.0000  gd87-09-08d1t10.wav
    11:16.65      119399324 B   ---   --   ---xx   flac  0.5601  gd87-09-08d1t11.flac
    11:16.65      119399324 B   ---   --   -----    wav  1.0000  gd87-09-08d1t11.wav
     9:16.18       98120780 B   ---   --   ---xx   flac  0.5628  gd87-09-08d2t01.flac
     9:16.18       98120780 B   ---   --   -----    wav  1.0000  gd87-09-08d2t01.wav
    10:54.68      115525580 B   ---   --   ---xx   flac  0.5562  gd87-09-08d2t02.flac
    10:54.68      115525580 B   ---   --   -----    wav  1.0000  gd87-09-08d2t02.wav
     7:19.65       77592524 B   ---   --   ---xx   flac  0.5205  gd87-09-08d2t03.flac
     7:19.65       77592524 B   ---   --   -----    wav  1.0000  gd87-09-08d2t03.wav
     4:44.45       50203484 B   ---   --   ---xx   flac  0.4399  gd87-09-08d2t04.flac
     4:44.45       50203484 B   ---   --   -----    wav  1.0000  gd87-09-08d2t04.wav
     8:37.70       91363484 B   ---   --   ---xx   flac  0.5612  gd87-09-08d2t05.flac
     8:37.70       91363484 B   ---   --   -----    wav  1.0000  gd87-09-08d2t05.wav
     7:31.48       79669340 B   ---   --   ---xx   flac  0.5290  gd87-09-08d2t06.flac
     7:31.48       79669340 B   ---   --   -----    wav  1.0000  gd87-09-08d2t06.wav
     5:30.21       58261436 B   ---   --   ---xx   flac  0.5899  gd87-09-08d2t07.flac
     5:30.21       58261436 B   ---   --   -----    wav  1.0000  gd87-09-08d2t07.wav
     0:43.03        7592300 B   ---   --   ---xx   flac  0.4655  gd87-09-08d2t08.flac
     0:43.03        7592300 B   ---   --   -----    wav  1.0000  gd87-09-08d2t08.wav
     6:32.29       69217052 B   ---   --   ---xx   flac  0.5468  gd87-09-08d2t09.flac
     6:32.29       69217052 B   ---   --   -----    wav  1.0000  gd87-09-08d2t09.wav
   264:39.71     2801224352 B                            0.7730  (40 files)
Show Checksums
flac-md5
97759504c98b6ce7d55fe6937192db85 *gd87-09-08d1t01.flac
f47e02e7fbe5edd5ef9fee98952cd096 *gd87-09-08d1t02.flac
2e0df60f8f417641916f4fdd1cb847de *gd87-09-08d1t03.flac
89bd485cbd3b7547c91712385aac9b6f *gd87-09-08d1t04.flac
35a0c79153d78e639d0ffaddf248f7ac *gd87-09-08d1t05.flac
04e7161e97c3f7d7deffe2ec41f59338 *gd87-09-08d1t06.flac
b93d7ee4deda325f893c028daa74e42e *gd87-09-08d1t07.flac
a475badbb590093b1ffd4153fa4aa333 *gd87-09-08d1t08.flac
ad509365663590e75b47c0290899d14e *gd87-09-08d1t09.flac
6769411445c845fd9db434cbd7cf7445 *gd87-09-08d1t10.flac
00b13d857afd9c9e9beeb7d5675c1e6f *gd87-09-08d1t11.flac
f2328f299e426e27942b9219bfa1a34d *gd87-09-08d2t01.flac
db26acb30bbd3e0035392e79b887c6ee *gd87-09-08d2t02.flac
04f5a4461841b308de0017004cc9fd9b *gd87-09-08d2t03.flac
b364523f6ed8a40f15f7c2fd75076a4d *gd87-09-08d2t04.flac
6655bc683d268a111331caa567d320b7 *gd87-09-08d2t05.flac
2d9d1e9f6da84f9d925334b10e0d71f0 *gd87-09-08d2t06.flac
c6dcd94dfaf54f3cb16d37a5a9cf8eef *gd87-09-08d2t07.flac
65942889191aa3ba4cb03ce867895305 *gd87-09-08d2t08.flac
4930fca04e85c4c413b604c8411d8b9c *gd87-09-08d2t09.flac
ffp
gd87-09-08d1t01.flac:950fde4f981910a3abc55d188878152f
gd87-09-08d1t02.flac:b7d6c96ad6f72f944afbbd6c09d7d196
gd87-09-08d1t03.flac:d2032e870be2fbf6ffdd31c2a3ea3758
gd87-09-08d1t04.flac:1cad5b6fac608b4fd089ddd4a932e25a
gd87-09-08d1t05.flac:2436b5c829f7bff42cc3dea8af9b1af4
gd87-09-08d1t06.flac:550f122843e5b41d0faa597a20326c59
gd87-09-08d1t07.flac:f3b689c27a3f444d2713f86e024fada5
gd87-09-08d1t08.flac:37fe8af5a1a6475a75610bd121bf6bc4
gd87-09-08d1t09.flac:5c2283078d6a9052f13adc3e1cafd5cd
gd87-09-08d1t10.flac:0c462cb68c83ebc17da2cd0140eab30c
gd87-09-08d1t11.flac:c2e20ffc1368c27164795a9dc6bc452c
gd87-09-08d2t01.flac:f8dfe907ca8a8d71b2aaca423217913d
gd87-09-08d2t02.flac:89339be4f3420c2ede2baec3bbdc47a0
gd87-09-08d2t03.flac:f23a66fcab0c224958b67a63562be87c
gd87-09-08d2t04.flac:28a2248606768bd11c0ba6d7f839a860
gd87-09-08d2t05.flac:b9e0b9abe48c1e06ca681480ced092c0
gd87-09-08d2t06.flac:7fc46f07c3fb2295b05704044c6fb07f
gd87-09-08d2t07.flac:006b7754cb79c344fc0373eb3490e5b1
gd87-09-08d2t08.flac:37de8da43f8e006ced8c1a75b007d823
gd87-09-08d2t09.flac:a04364ade4488d63e3c4f493257f625b

Comments
Add Comment
Other Sources (comments)
Unknown Soundboard Slight... (0) Sony ECM220T mics from... (0) SBD -> PCM -> Dat -> CD ->... (0) flac16; Source: AUD,... (0) flac16; Source:... (0) flac16; taper : Joe... (0) flac16; Master:... (0) flac16; Recording... (0) flac16; Recording... (0) flac16; Recording... (0)
Date User Comment