Browse Collections Artists Sources   Search Dates

Add Show    List Management    Help


Greensky Bluegrass 02/27/09
Lola's Stockyards, Ft. Worth, TX
Comments Add Comment    Source Collectors    Add to Collection    Add to Want List    History
Source # 106690 Other Sources
Entered by
Checksums ffp
Disc Counts 0 / 0
Media Size
Date Circulated
Date Added
03/20/10
03/23/2010
Source Summary Source: DPA 4021 > Lunatec ACM V3 > 744t + DSBD
Location: FOB, DFC, DIN, 7'
Transfer: 744t > SoundForge 10.0b > CDWave > FLAC 
Source Information - Download Text | Download Zip
Greensky Bluegrass
Lola's Stocjyards
Fort Worth, Texas
2/27/2009

Source: DPA 4021 > Lunatec ACM V3 > 744t + DSBD
Location: FOB, DFC, DIN, 7'
Transfer: 744t > SoundForge 10.0b > CDWave > FLAC (6)
Taped and Transferred by OFOTD
Seeded By: Z-Man

Disc I 1st Set

01 ?
02 Radio Blues
03 Sittin' On Top Of The World
04 Against The Days
05 Ground Hog >
06 The Wheel Hoss
07 Banter/Hoochie Coochie Man Tease
08 Road To Nowhere
09 Instrumental
10 Take Me Back Down That Wonderin' Road
11 Senor
12 Salty Dog >
13 Bottle Dry
14 Freeborn Man >
15 Friend Of The Devil >
16 Freeborn Man

Disc II 2nd Set

01 Airmail Special >
02 Instrumental
03 Grow Bananas
04 Can't Stop Now
05 Banter On Old Barns
06 Old Barns
07 Jesus On The Mainline
08 Reverend
09 Dry County >
10 Time >
11 Dry County

Disc III 2nd Set Con't

01 Banter On Texas/Tequila
02 Just To Lie
03 Banter
04 Middle Mountain Towns >
05 Broke Mountain Breakdown >
06 Funk Jam >
07 When Doves Cry
Encore:
08 Banter/Tuning
09 Steam-Powered Aireoplane >
10 Breakdown
11 What's Left Of The Night

Flac Fingerprint

gsbg2009-03-04d01t01.flac:ad46d34bbc8246e279be9083abc20409
gsbg2009-03-04d01t02.flac:41c3038b2e9908f1d39a6aebde5782cb
gsbg2009-03-04d01t03.flac:01a8ab5382464226ab3530e4cca7017e
gsbg2009-03-04d01t04.flac:3c4a12103bfb5e974e4505370277d417
gsbg2009-03-04d01t05.flac:dd2e75a8bc250362044622d9d1005d5e
gsbg2009-03-04d01t06.flac:bb9394c892f4381b99af6799e6c83ddf
gsbg2009-03-04d01t07.flac:aa84f9506c78ab7cd517436b2c3afba7
gsbg2009-03-04d01t08.flac:bcd86ac423b6c018d0b72d422155ef25
gsbg2009-03-04d01t09.flac:06f6e74d9b5a716289782c9c1178f7e5
gsbg2009-03-04d01t10.flac:ebf0bd91a2ab7cb714e77d49b42a29bb
gsbg2009-03-04d01t11.flac:fb379ffb236896c98549d00239cf62a7
gsbg2009-03-04d01t12.flac:907b795c717db1046a9a8256351f7bf3
gsbg2009-03-04d01t13.flac:737301e368bdabdb7251a5f34a6eaee4
gsbg2009-03-04d01t14.flac:2021fd4d3e84810e55afbc605c550358
gsbg2009-03-04d01t15.flac:225e0ad2bcab3355e2ecd935d6f0c4e6
gsbg2009-03-04d01t16.flac:9bb66c5cb77a4e75d98daf56a23f977b
gsbg2009-03-04d02t01.flac:00ef6d76dd3755baf7bf14fabe899ff0
gsbg2009-03-04d02t02.flac:8881c7686b90180737b4e008b62d4a07
gsbg2009-03-04d02t03.flac:ebd47a0ebe6559b45262da455b49c49d
gsbg2009-03-04d02t04.flac:68d20ecd3219a077c6a62f999eeec41a
gsbg2009-03-04d02t05.flac:e96ec7bf9223bd19812b23c44f84b51d
gsbg2009-03-04d02t06.flac:ef5de87ec35da7877adf980baee29201
gsbg2009-03-04d02t07.flac:e0f4721a60708fb7ed6b7bae461e7c84
gsbg2009-03-04d02t08.flac:c9d8c72fd07e02c72e9a7a38e5f6923f
gsbg2009-03-04d02t09.flac:e03fcfa09fbba2742e391adc4397c2ac
gsbg2009-03-04d02t10.flac:814b74fb695785a21f5b044eedce0065
gsbg2009-03-04d02t11.flac:49505adfc7f600f1bbae79c4e3f07759
gsbg2009-03-04d03t01.flac:19a682d87417188c28d768788f4d08d0
gsbg2009-03-04d03t02.flac:eea0596b67ceff5d3a2a9c28ccc2057d
gsbg2009-03-04d03t03.flac:4bf2e1ad114323d650c50b92d928d9dd
gsbg2009-03-04d03t04.flac:6f41e57388fb10fc794203c16c143fac
gsbg2009-03-04d03t05.flac:613d37e1cbe3ad19dbe583106398b395
gsbg2009-03-04d03t06.flac:119dcd578b9f1377fb96565b67d3e667
gsbg2009-03-04d03t07.flac:fc7a01c8b9c4db66b09654a94389f26e
gsbg2009-03-04d03t08.flac:a4a75749be80b34c72146737ce5ee2c8
gsbg2009-03-04d03t09.flac:94d180bd1222c45c17693ac43616fa1a
gsbg2009-03-04d03t10.flac:9ec962aa4de4e4e1d928bcf97027130e
gsbg2009-03-04d03t11.flac:b0c3b91928a8d223504fa64bb794a313

Shntool

    length     expanded size    cdr  WAVE problems  fmt   ratio  filename
     4:11.11       44302316 B   ---   --   ---xx   flac  0.4832  gsbg2009-03-04d01t01.flac
     4:09.35       44005964 B   ---   --   ---xx   flac  0.5028  gsbg2009-03-04d01t02.flac
     2:55.68       31029980 B   ---   --   ---xx   flac  0.5177  gsbg2009-03-04d01t03.flac
     4:21.13       46071020 B   ---   --   ---xx   flac  0.4769  gsbg2009-03-04d01t04.flac
     4:19.56       45819356 B   ---   --   ---xx   flac  0.5099  gsbg2009-03-04d01t05.flac
     4:05.45       43323884 B   ---   --   ---xx   flac  0.5531  gsbg2009-03-04d01t06.flac
     2:05.64       22200572 B   ---   --   ---xx   flac  0.4216  gsbg2009-03-04d01t07.flac
     6:21.40       67302524 B   ---   --   ---xx   flac  0.4918  gsbg2009-03-04d01t08.flac
     6:08.09       64936412 B   ---   --   ---xx   flac  0.5315  gsbg2009-03-04d01t09.flac
     4:02.43       42789980 B   ---   --   ---xx   flac  0.5038  gsbg2009-03-04d01t10.flac
     5:17.42       56017628 B   ---   --   ---xx   flac  0.4829  gsbg2009-03-04d01t11.flac
     4:09.70       44088284 B   ---   --   ---xx   flac  0.5567  gsbg2009-03-04d01t12.flac
     7:37.51       80734796 B   ---   --   ---xx   flac  0.4729  gsbg2009-03-04d01t13.flac
     9:56.04      105143852 B   ---   --   ---xx   flac  0.5427  gsbg2009-03-04d01t14.flac
     6:05.61       64529516 B   ---   --   ---xx   flac  0.5727  gsbg2009-03-04d01t15.flac
     1:32.51       16348796 B   ---   --   ---xx   flac  0.5655  gsbg2009-03-04d01t16.flac
     2:07.64       22553372 B   ---   --   ---xx   flac  0.5010  gsbg2009-03-04d02t01.flac
     5:33.65       58894124 B   ---   --   ---xx   flac  0.5433  gsbg2009-03-04d02t02.flac
     4:40.17       49432028 B   ---   --   ---xx   flac  0.4976  gsbg2009-03-04d02t03.flac
     6:08.01       64917596 B   ---   --   ---xx   flac  0.5459  gsbg2009-03-04d02t04.flac
     1:42.05       18004604 B   ---   --   ---xx   flac  0.4554  gsbg2009-03-04d02t05.flac
     5:19.31       56344556 B   ---   --   ---xx   flac  0.5169  gsbg2009-03-04d02t06.flac
     2:10.51       23051996 B   ---   --   ---xx   flac  0.5548  gsbg2009-03-04d02t07.flac
     5:52.08       62111660 B   ---   --   ---xx   flac  0.5192  gsbg2009-03-04d02t08.flac
     5:59.26       63388796 B   ---   --   ---xx   flac  0.5124  gsbg2009-03-04d02t09.flac
     6:02.41       63953276 B   ---   --   ---xx   flac  0.5371  gsbg2009-03-04d02t10.flac
     0:45.16        7975676 B   ---   --   ---xx   flac  0.4922  gsbg2009-03-04d02t11.flac
     2:31.02       26641148 B   ---   --   ---xx   flac  0.4263  gsbg2009-03-04d03t01.flac
     3:28.64       36841772 B   ---   --   ---xx   flac  0.5314  gsbg2009-03-04d03t02.flac
     2:04.14       21906572 B   ---   --   ---xx   flac  0.4337  gsbg2009-03-04d03t03.flac
     3:50.09       40593212 B   ---   --   ---xx   flac  0.5014  gsbg2009-03-04d03t04.flac
     4:33.15       48192524 B   ---   --   ---xx   flac  0.5384  gsbg2009-03-04d03t05.flac
     4:00.42       42434828 B   ---   --   ---xx   flac  0.4349  gsbg2009-03-04d03t06.flac
     9:02.37       95695868 B   ---   --   ---xx   flac  0.5400  gsbg2009-03-04d03t07.flac
     3:02.46       32213036 B   ---   --   ---xx   flac  0.4186  gsbg2009-03-04d03t08.flac
     3:42.71       39327836 B   ---   --   ---xx   flac  0.5284  gsbg2009-03-04d03t09.flac
     3:19.36       35188316 B   ---   --   ---xx   flac  0.5664  gsbg2009-03-04d03t10.flac
     7:50.46       83016236 B   ---   --   ---xx   flac  0.5723  gsbg2009-03-04d03t11.flac
   171:08.20     1811323912 B                            0.5165  (38 files)

Show Checksums
ffp
gsbg2009-03-04d01t01.flac:ad46d34bbc8246e279be9083abc20409
gsbg2009-03-04d01t02.flac:41c3038b2e9908f1d39a6aebde5782cb
gsbg2009-03-04d01t03.flac:01a8ab5382464226ab3530e4cca7017e
gsbg2009-03-04d01t04.flac:3c4a12103bfb5e974e4505370277d417
gsbg2009-03-04d01t05.flac:dd2e75a8bc250362044622d9d1005d5e
gsbg2009-03-04d01t06.flac:bb9394c892f4381b99af6799e6c83ddf
gsbg2009-03-04d01t07.flac:aa84f9506c78ab7cd517436b2c3afba7
gsbg2009-03-04d01t08.flac:bcd86ac423b6c018d0b72d422155ef25
gsbg2009-03-04d01t09.flac:06f6e74d9b5a716289782c9c1178f7e5
gsbg2009-03-04d01t10.flac:ebf0bd91a2ab7cb714e77d49b42a29bb
gsbg2009-03-04d01t11.flac:fb379ffb236896c98549d00239cf62a7
gsbg2009-03-04d01t12.flac:907b795c717db1046a9a8256351f7bf3
gsbg2009-03-04d01t13.flac:737301e368bdabdb7251a5f34a6eaee4
gsbg2009-03-04d01t14.flac:2021fd4d3e84810e55afbc605c550358
gsbg2009-03-04d01t15.flac:225e0ad2bcab3355e2ecd935d6f0c4e6
gsbg2009-03-04d01t16.flac:9bb66c5cb77a4e75d98daf56a23f977b
gsbg2009-03-04d02t01.flac:00ef6d76dd3755baf7bf14fabe899ff0
gsbg2009-03-04d02t02.flac:8881c7686b90180737b4e008b62d4a07
gsbg2009-03-04d02t03.flac:ebd47a0ebe6559b45262da455b49c49d
gsbg2009-03-04d02t04.flac:68d20ecd3219a077c6a62f999eeec41a
gsbg2009-03-04d02t05.flac:e96ec7bf9223bd19812b23c44f84b51d
gsbg2009-03-04d02t06.flac:ef5de87ec35da7877adf980baee29201
gsbg2009-03-04d02t07.flac:e0f4721a60708fb7ed6b7bae461e7c84
gsbg2009-03-04d02t08.flac:c9d8c72fd07e02c72e9a7a38e5f6923f
gsbg2009-03-04d02t09.flac:e03fcfa09fbba2742e391adc4397c2ac
gsbg2009-03-04d02t10.flac:814b74fb695785a21f5b044eedce0065
gsbg2009-03-04d02t11.flac:49505adfc7f600f1bbae79c4e3f07759
gsbg2009-03-04d03t01.flac:19a682d87417188c28d768788f4d08d0
gsbg2009-03-04d03t02.flac:eea0596b67ceff5d3a2a9c28ccc2057d
gsbg2009-03-04d03t03.flac:4bf2e1ad114323d650c50b92d928d9dd
gsbg2009-03-04d03t04.flac:6f41e57388fb10fc794203c16c143fac
gsbg2009-03-04d03t05.flac:613d37e1cbe3ad19dbe583106398b395
gsbg2009-03-04d03t06.flac:119dcd578b9f1377fb96565b67d3e667
gsbg2009-03-04d03t07.flac:fc7a01c8b9c4db66b09654a94389f26e
gsbg2009-03-04d03t08.flac:a4a75749be80b34c72146737ce5ee2c8
gsbg2009-03-04d03t09.flac:94d180bd1222c45c17693ac43616fa1a
gsbg2009-03-04d03t10.flac:9ec962aa4de4e4e1d928bcf97027130e
gsbg2009-03-04d03t11.flac:b0c3b91928a8d223504fa64bb794a313

Comments
Add Comment
Date User Comment