Browse Collections Artists Sources   Search Dates

Add Show    List Management    Help


Zero 06/13/95
White Rabbit, Austin, TX
Comments Add Comment    Source Collectors    Add to Collection    Add to Want List    History
Source # 106759 Other Sources
Entered by Todd
Checksums ffp
Disc Counts 1 / 3
Media Size
Date Circulated
Date Added
07/11/2005
03/28/2010
Source Summary SBD > Dat > CD > EAC > Flac 
Source Information - Download Text | Download Zip
Zero
06-13-1995
White Rabbit, Austin, Tx

Source: SBD > Dat > CD > EAC > Flac


Set 1:

d1t01 Anorexia
d1t02 Tangled Hangers
d1t03 Highway 61
d1t04 Catalina
d1t05 Rigor Mortis

Set 2:

d2t01 Slide Intro ->
d2t02 Chance In A Million
d2t03 Pits Of Thunder
d2t04 Mercury Blues
d2t05 End Of The World Blues
d2t06 The Shape Im In
d3t01 Golden Road

Encore:

d3t02 Richie's Rooster


shntool:

    length     expanded size    cdr  WAVE problems  fmt   ratio  filename
    12:07.00      128242844 B   ---   --   ---xx   flac  0.3740  zero1995-06-13d1t01.flac
    14:55.00      157878044 B   ---   --   ---xx   flac  0.4192  zero1995-06-13d1t02.flac
    13:01.00      137768444 B   ---   --   ---xx   flac  0.4205  zero1995-06-13d1t03.flac
    12:39.00      133887644 B   ---   --   ---xx   flac  0.4027  zero1995-06-13d1t04.flac
    10:18.02      109019948 B   ---   --   ---xx   flac  0.3947  zero1995-06-13d1t05.flac
    11:26.00      121010444 B   ---   --   ---xx   flac  0.4501  zero1995-06-13d2t01.flac
     9:56.00      105134444 B   ---   --   ---xx   flac  0.3845  zero1995-06-13d2t02.flac
     7:57.00       84142844 B   ---   --   ---xx   flac  0.4558  zero1995-06-13d2t03.flac
    12:57.00      137062844 B   ---   --   ---xx   flac  0.4081  zero1995-06-13d2t04.flac
     6:52.00       72676844 B   ---   --   ---xx   flac  0.4368  zero1995-06-13d2t05.flac
    14:47.15      156502124 B   ---   --   ---xx   flac  0.4481  zero1995-06-13d2t06.flac
     7:31.58       79692860 B   ---   --   ---xx   flac  0.4168  zero1995-06-13d3t01.flac
    34:33.27      365740748 B   ---   --   ---xx   flac  0.3472  zero1995-06-13d3t02.flac
   169:00.27     1788760076 B                            0.4027  (13 files)
Show Checksums
ffp
zero1995-06-13d1t01.flac:9a37c619bbebdbede6cdd4f1878fb0bd
zero1995-06-13d1t02.flac:d753416b6133ad7b29c9da3d2ff201f1
zero1995-06-13d1t03.flac:a228491581cd202eb7fe437d09cd8305
zero1995-06-13d1t04.flac:7bc8f1eda2674b7fe4c09f73df26ea25
zero1995-06-13d1t05.flac:80482362b33bdd6a688ff2cec3317b7f
zero1995-06-13d2t01.flac:2d0ddf3880802ae8837e692dcd0b4289
zero1995-06-13d2t02.flac:fb171adf7becbe2e296c1621421e526d
zero1995-06-13d2t03.flac:5d8dc4aafc0387becd04d891c1864361
zero1995-06-13d2t04.flac:09814ea08357f63c04a7e594df7c73f9
zero1995-06-13d2t05.flac:13f6d529a03587876826fda8089c5b40
zero1995-06-13d2t06.flac:187ff8252dbbbb5bf27d6cdb25db38dc
zero1995-06-13d3t01.flac:59f47003eda0cf4d12a9a948bf153339
zero1995-06-13d3t02.flac:f92e21bc4ff076615ecaab60c6f20011

Comments
Add Comment
Date User Comment