Browse Collections Artists Sources   Search Dates

Add Show    List Management    Help


Grateful Dead 03/21/81
Rainbow Theater, London, England
Comments Add Comment    Source Collectors    Add to Collection    Add to Want List    History
Source # 106778 Other Sources
Entered by dr.unclear
Checksums ffp , flac-md5
Disc Counts 2 / 2
Media Size
Date Circulated
Date Added
03/30/2010
03/30/2010
Source Summary flac16; Recording Info: SBD -> Cassette Master -> Cassette; Transfer Info: Cassette (Nakamichi DR-1) -> Sound Devices 744T (24bit/48k) -> Adobe Audition v3.0 -> Samplitude Professional v11.03 -> FLAC/16; All Transfers and Mastering By Charlie Miller 
  Archive
Source Information - Download Text | Download Zip
Grateful Dead - March 21, 1981
Rainbow Theatre - London, England

Recording Info:
SBD -> Cassette Master -> Cassette

Transfer Info:
Cassette  (Nakamichi DR-1) -> Sound Devices 744T (24bit/48k) ->
Adobe Audition v3.0 -> Samplitude Professional v11.03 -> FLAC/16
(2 Discs Audio / 2 Discs FLAC)

All Transfers and Mastering By Charlie Miller
[email protected]
March 29, 2010

Patch Info:
Sennheiser 421 -> Cassette Master -> Dat -> CD (shnid=3594) supplies:
Little Red Rooster (7:24 - 7:53)

Notes:
-- Thanks to Joani Walker and Paul Scotton for the tapes
-- Thanks to Joe B. Jones for his help with the pitch correction

Set 1:
d1t01 - Alabama Getaway ->
d1t02 - Promised Land
d1t03 - Peggy-O
d1t04 - Me And My Uncle ->
d1t05 - Big River
d1t06 - Tennessee Jed ->
d1t07 - Little Red Rooster
d1t08 - Althea
d1t09 - Let It Grow ->
d1t10 - China Cat Sunflower ->
d1t11 - I Know You Rider

Set 2:
d2t01 - Jack Straw
d2t02 - Ship Of Fools
d2t03 - Estimated Prophet ->
d2t04 - Eyes Of The World ->
d2t05 - Drums ->
d2t06 - Space ->
d2t07 - Not Fade Away ->
d2t08 - Black Peter ->
d2t09 - One More Saturday Night

Encore:
d2t10 - Don't Ease Me In


SHNTOOL OUTPUT:
    length     expanded size   cdr  WAVE problems filename
     5:35.10       59117564    ---   --   -----   gd81-03-21d1t01.wav
     4:21.44       46143932    ---   --   -----   gd81-03-21d1t02.wav
     7:13.08       76400060    ---   --   -----   gd81-03-21d1t03.wav
     2:59.74       31749692    ---   --   -----   gd81-03-21d1t04.wav
     5:32.24       58621292    ---   --   -----   gd81-03-21d1t05.wav
     8:32.27       90380348    ---   --   -----   gd81-03-21d1t06.wav
     8:39.17       91591628    ---   --   -----   gd81-03-21d1t07.wav
     9:47.08      103565660    ---   --   -----   gd81-03-21d1t08.wav
    12:53.14      136390172    ---   --   -----   gd81-03-21d1t09.wav
     6:25.17       67954028    ---   --   -----   gd81-03-21d1t10.wav
     7:52.35       83343164    ---   --   -----   gd81-03-21d1t11.wav
     5:37.67       59604428    ---   --   -----   gd81-03-21d2t01.wav
     8:25.42       89180828    ---   --   -----   gd81-03-21d2t02.wav
    11:47.58      124851260    ---   --   -----   gd81-03-21d2t03.wav
    13:07.26      138887996    ---   --   -----   gd81-03-21d2t04.wav
     6:50.59       72462812    ---   --   -----   gd81-03-21d2t05.wav
     6:07.57       64872908    ---   --   -----   gd81-03-21d2t06.wav
    10:33.45      111767084    ---   --   -----   gd81-03-21d2t07.wav
     9:09.04       96853052    ---   --   -----   gd81-03-21d2t08.wav
     5:02.42       53371628    ---   --   -----   gd81-03-21d2t09.wav
     3:05.51       32753996    ---   --   -----   gd81-03-21d2t10.wav
   159:39.54     1689863532 B                     (totals for 21 files)
Show Checksums
ffp
gd81-03-21d1t01.flac:2ca7c87d918122b510ea2a04d5750031
gd81-03-21d1t02.flac:a3e75efcc31b2f925c206a412b890106
gd81-03-21d1t03.flac:07253626afc8753dee9f6e8e55f8ce83
gd81-03-21d1t04.flac:fd509c9812eb98bb1e34e31662af2048
gd81-03-21d1t05.flac:468eda0e06e469490c6b01a68033964d
gd81-03-21d1t06.flac:ca9c511fb85c63c3efb70e5343b5d6da
gd81-03-21d1t07.flac:82ad2d6d3e4e52fd342d49df112b85e7
gd81-03-21d1t08.flac:5771ba0672c278e253ba1e1f9ce2c708
gd81-03-21d1t09.flac:d0a6eaf8dd3e539873b28c59dc61b3dd
gd81-03-21d1t10.flac:7f85220dc04bbbabe33deb50b7f0c738
gd81-03-21d1t11.flac:a60bf42561edf234b233617ed5c7dce4
gd81-03-21d2t01.flac:f41ed460c5fe67c811137abedb96b396
gd81-03-21d2t02.flac:85ff5fd6debc244a9639f4ea6948d7c9
gd81-03-21d2t03.flac:ca4bf850ba90581383e74edf60f8c2c7
gd81-03-21d2t04.flac:59227ffb3e1d090008d18c3d63287ca0
gd81-03-21d2t05.flac:913a3dbfac6c6f321da0e1718ca15040
gd81-03-21d2t06.flac:88b08825bbd67a58917f49d4c8899e89
gd81-03-21d2t07.flac:33e170047c42987a17d51a00a237c3a2
gd81-03-21d2t08.flac:a330567e2bcdaad2e26f135cb8fdd933
gd81-03-21d2t09.flac:76dae89fdd3da6c2ad8d897c4dbb2d97
gd81-03-21d2t10.flac:aebfd4c7d9537268208074e06e1572d0
flac-md5
9e0ee3f28f6a7dea016a261533198d7c *gd81-03-21d1t01.flac
e3943ea57b4049c484bc8dfddf494e1f *gd81-03-21d1t02.flac
3c1f42560ba748ee7609e3511151afb0 *gd81-03-21d1t03.flac
23952ca9d3427c6afd500250ae008038 *gd81-03-21d1t04.flac
0148d75a900f9f405f0f02a9b436350a *gd81-03-21d1t05.flac
97752cc156bbb416d2158d8ca6e94631 *gd81-03-21d1t06.flac
630e5b48c0c0dd5cc1e00601f119ed18 *gd81-03-21d1t07.flac
6e7898f1016e8e812448d00bbd3c07ab *gd81-03-21d1t08.flac
b8d5d42fdf209680f8b43f2bd271b2ce *gd81-03-21d1t09.flac
b7fdb12cbfb06c5b8807424119732a5a *gd81-03-21d1t10.flac
c3fdb2a8ad4b61618c65276a920895f0 *gd81-03-21d1t11.flac
d52e51021d83ccfadeb2651d7af4e8c3 *gd81-03-21d2t01.flac
baee103490af7eb62aa853d552e2b338 *gd81-03-21d2t02.flac
f984493bd71e0d13c4452216158e278d *gd81-03-21d2t03.flac
5d8d555cdb0a849418c5570bfaef6140 *gd81-03-21d2t04.flac
0710be39096a216fcaffcc0cc866edc2 *gd81-03-21d2t05.flac
91f736499a69e28055a148119c1dae4a *gd81-03-21d2t06.flac
71debff3d3e60fee62d8ade6defb61d3 *gd81-03-21d2t07.flac
fd9aa4f325eaf4b7f2af64cd1f685ac1 *gd81-03-21d2t08.flac
9188fa40cfe2ca71cc9a3f8010a86f62 *gd81-03-21d2t09.flac
87413ea43a7a08670df0fd2612c47d4d *gd81-03-21d2t10.flac

Comments
Add Comment
Other Sources (comments)
Senn 421's> Sony TC-D5... (1) Master Soundboard Cassette... (4) SBD:MC> Cass> CD, with AUD... (1) AUD > MC > C > Nakamishi... (0) flac16; Set II... (1) flac16; SBD/AUD -... (1) flac16; Source Info:... (0) flac24; Source Info:... (0)
Date User Comment