Browse Collections Artists Sources   Search Dates

Add Show    List Management    Help


Grateful Dead 09/29/80
Warfield Theater, San Francisco, CA
Comments Add Comment    Source Collectors    Add to Collection    Add to Want List    History
Source # 106783 Other Sources
Entered by dr.unclear
Checksums ffp , flac-md5
Disc Counts 2 / 3
Media Size
Date Circulated
Date Added
03/30/2010
03/30/2010
Source Summary flac16; Recording Info: Nakamichi 300/CP1 -> Cassette Master (Sony D5M/Maxell UDXL-II90); Transfer Info: Cassette Master (Nakamichi DR-1) -> Sound Devices 744T (24bit/48k) -> Adobe Audition v3.0 -> Samplitude Professional v11.03 -> FLAC/16; All Transfers and Mastering By Charlie Miller 
  Archive
Source Information - Download Text | Download Zip
Grateful Dead - September 29, 1980
Warfield Theatre - San Francisco, CA

Recording Info:
Nakamichi 300/CP1 -> Cassette Master (Sony D5M/Maxell UDXL-II90)

Transfer Info:
Cassette Master (Nakamichi DR-1) -> Sound Devices 744T (24bit/48k) ->
Adobe Audition v3.0 -> Samplitude Professional v11.03 -> FLAC/16
(3 Discs Audio / 2 Discs FLAC)

All Transfers and Mastering By Charlie Miller
[email protected]
March 30, 2010

Patch Info:
Nakamichi 700 -> Cassette Master -> Reel -> CD (shnid=89075) supplies:
Bird Song (1:58 - 2:08)
Drums (9:20 - end of show)

Notes:
-- Seamless disc change between discs 2 and 3
-- Set 1 is acoustic
-- Hopefully someday we'll find the last tape from Joani's master
-- Thanks to Joani Walker and Paul Scotton for the tapes
-- Thanks to Joe B. Jones for his help with the pitch correction

Set 1:
d1t01 - Dire Wolf
d1t02 - On The Road Again
d1t03 - Bird Song
d1t04 - Cassidy
d1t05 - I've Been All Around This World
d1t06 - Heaven Help The Fool
d1t07 - To Lay Me Down
d1t08 - Dark Hollow
d1t09 - Oh Babe It Ain't No Lie
d1t10 - Ripple

Set 2:
d2t01 - Tuning
d2t02 - Jack Straw
d2t03 - They Love Each Other
d2t04 - El Paso
d2t05 - Brown Eyed Women
d2t06 - It's All Over Now
d2t07 - Candyman
d2t08 - New Minglewood Blues
d2t09 - China Cat Sunflower ->
d2t10 - I Know You Rider

Set 3:
d2t11 - Althea
d3t01 - Lost Sailor ->
d3t02 - Saint Of Circumstance ->
d3t03 - Terrapin Station ->
d3t04 - Drums ->
d3t05 - Space ->
d3t06 - Truckin' ->
d3t07 - Wharf Rat ->
d3t08 - Around And Around ->
d3t09 - Johnny B. Goode

Encore:
d3t10 - U.S. Blues


SHNTOOL OUTPUT:
    length     expanded size   cdr  WAVE problems filename
     3:59.11       42185516    ---   --   -----   gd80-09-29d1t01.wav
     4:20.67       46021628    ---   --   -----   gd80-09-29d1t02.wav
     7:37.02       80619548    ---   --   -----   gd80-09-29d1t03.wav
     5:55.13       62652620    ---   --   -----   gd80-09-29d1t04.wav
     4:32.33       48058460    ---   --   -----   gd80-09-29d1t05.wav
     5:44.15       60716924    ---   --   -----   gd80-09-29d1t06.wav
    10:07.32      107150108    ---   --   -----   gd80-09-29d1t07.wav
     3:47.59       40181612    ---   --   -----   gd80-09-29d1t08.wav
     5:49.04       61573052    ---   --   -----   gd80-09-29d1t09.wav
     4:39.40       49309724    ---   --   -----   gd80-09-29d1t10.wav
     1:13.21       12926636    ---   --   -----   gd80-09-29d2t01.wav
     6:46.15       71653724    ---   --   -----   gd80-09-29d2t02.wav
     7:09.35       75757964    ---   --   -----   gd80-09-29d2t03.wav
     4:21.04       46049852    ---   --   -----   gd80-09-29d2t04.wav
     5:00.01       52922396    ---   --   -----   gd80-09-29d2t05.wav
     8:14.22       87193388    ---   --   -----   gd80-09-29d2t06.wav
     7:16.07       76926908    ---   --   -----   gd80-09-29d2t07.wav
     7:13.52       76503548    ---   --   -----   gd80-09-29d2t08.wav
     6:17.43       66603980    ---   --   -----   gd80-09-29d2t09.wav
     5:40.25       60034844    ---   --   -----   gd80-09-29d2t10.wav
     8:32.71       90483836    ---   --   -----   gd80-09-29d2t11.wav
     6:28.29       68511452    ---   --   -----   gd80-09-29d3t01.wav
     6:49.47       72258188    ---   --   -----   gd80-09-29d3t02.wav
    15:13.06      161067356    ---   --   -----   gd80-09-29d3t03.wav
     9:49.67      104057228    ---   --   -----   gd80-09-29d3t04.wav
     8:53.13       94051820    ---   --   -----   gd80-09-29d3t05.wav
     8:38.56       91506956    ---   --   -----   gd80-09-29d3t06.wav
    10:05.31      106794956    ---   --   -----   gd80-09-29d3t07.wav
     3:58.60       42124364    ---   --   -----   gd80-09-29d3t08.wav
     4:06.44       43497932    ---   --   -----   gd80-09-29d3t09.wav
     5:19.44       56375132    ---   --   -----   gd80-09-29d3t10.wav
   203:40.69     2155771652 B                     (totals for 31 files)
Show Checksums
ffp
gd80-09-29d1t01.flac:a426eb1ae0b189f93cdddc1ffb05c319
gd80-09-29d1t02.flac:886b291d9cb211aad41de97167331d02
gd80-09-29d1t03.flac:af3c8ef7f16f9a5e5d814b582a347590
gd80-09-29d1t04.flac:871cc97cad55ae51d034f9808fa90310
gd80-09-29d1t05.flac:136b5edb64b8af61d7250f8faee4d3cf
gd80-09-29d1t06.flac:b6c53f2a04c1143f65e111d080897fc7
gd80-09-29d1t07.flac:f799f5f92a1616997617c9ad64770c36
gd80-09-29d1t08.flac:32396f268a59111a0b1061505222ca3a
gd80-09-29d1t09.flac:cda3e6b4f98da22991a91a757c2a37e7
gd80-09-29d1t10.flac:8fdec62db7d382a46c1cc342d80b25ed
gd80-09-29d2t01.flac:80a0ed4b0f8abcec3db182113742311d
gd80-09-29d2t02.flac:778368bb45abd0630722d31a80a653d6
gd80-09-29d2t03.flac:e31ae5672005bc2d4530519164e1090c
gd80-09-29d2t04.flac:aed51d0ce97e0fb9263580feff129b97
gd80-09-29d2t05.flac:d0bcbf7bfb5a3b0732972679298ddd83
gd80-09-29d2t06.flac:10e890369a4da4c297f63352619826d8
gd80-09-29d2t07.flac:02e240f16d6db0302da81e2563ddf2f2
gd80-09-29d2t08.flac:e9dcd314b88199058547285dfc8b7c87
gd80-09-29d2t09.flac:b70fa4a9f49fdb98cce9e2604162b2bb
gd80-09-29d2t10.flac:235fe8e9b45e74e29ff675a6811ce345
gd80-09-29d2t11.flac:e9068c8546f271636db4f456442d1752
gd80-09-29d3t01.flac:0e752c24d17b00df5d3b5599a7c63652
gd80-09-29d3t02.flac:675023f63f03262acd02365538469b95
gd80-09-29d3t03.flac:650f45705ab19c33167053f7cbe53ff6
gd80-09-29d3t04.flac:25d0951ff2b27d3f5d9469d83ef7ed1b
gd80-09-29d3t05.flac:7791e4a3f52a502f873c8ffbd4c4014d
gd80-09-29d3t06.flac:0222b373b472e6ef8e60378c47fac70b
gd80-09-29d3t07.flac:2d9bfa99dc7c6068c7eabd565247c0a4
gd80-09-29d3t08.flac:0eda7d88fb53cb86138e94ce50173a70
gd80-09-29d3t09.flac:cfd3023ee20f433e437b23f538e1eb43
gd80-09-29d3t10.flac:ab20da82d46255da9dc935b546aad891
flac-md5
17a2928b90651d748bdadf3a4e965739 *gd80-09-29d1t01.flac
4cfdbc097e2c5c214b5583fd156f4cc4 *gd80-09-29d1t02.flac
f33858110ce862dd86c33bdaee4b7dda *gd80-09-29d1t03.flac
4d485a5a26b136af3cea66d37af9e4d0 *gd80-09-29d1t04.flac
5f7b3c170bb28cf7e95a75ca51068582 *gd80-09-29d1t05.flac
71faa28bca9b2ab4424f2bf2410ebf92 *gd80-09-29d1t06.flac
c7b39c61aed5bb9bd06610d43d7a31bd *gd80-09-29d1t07.flac
b6109696f77a981f04569b20a5f5e902 *gd80-09-29d1t08.flac
e24910c147d108254fe567fb337d15fc *gd80-09-29d1t09.flac
22581b15d50b72f53226ed0e08eadaf9 *gd80-09-29d1t10.flac
7368482e1aab276cb65a1eed4bf98abe *gd80-09-29d2t01.flac
f899ee082d88e7ff04537eb2f12b8740 *gd80-09-29d2t02.flac
a6e1d1e3ac374066e0d3c1599def1156 *gd80-09-29d2t03.flac
7505f48b6d2b669b907a8a8f54f2a54b *gd80-09-29d2t04.flac
3cc7f38bbb503cc4baa9fa9ad34b1357 *gd80-09-29d2t05.flac
f5b7958f9a3d36541267a259e0fd46db *gd80-09-29d2t06.flac
7d60e33201b8b1e940b3bae6bb6e1da5 *gd80-09-29d2t07.flac
adb178492d65570d2752d546f18bcd18 *gd80-09-29d2t08.flac
5370d09a1d25886c440b3cc21e41b9d4 *gd80-09-29d2t09.flac
27b3ff437bcc34d4ae3df3254e68d2b4 *gd80-09-29d2t10.flac
4b2c8d3d363f1dbb01ec1049bd27b97d *gd80-09-29d2t11.flac
7bae3ce37b66367e8d4a9b21de6f4646 *gd80-09-29d3t01.flac
194ecce867d7f4f0313b81ab97eff377 *gd80-09-29d3t02.flac
372d75d37422ded44988f8398eacd809 *gd80-09-29d3t03.flac
062d818bc5ac124a00ab06c23ad87a37 *gd80-09-29d3t04.flac
50ca9c6fa88ecc83cdbf21032492f568 *gd80-09-29d3t05.flac
68782af79b06d768d8ca2b631b5f16db *gd80-09-29d3t06.flac
37fe31db110a787acd1d014360e8a524 *gd80-09-29d3t07.flac
13d6d239af55d5ec17c6cd568dece705 *gd80-09-29d3t08.flac
4d509bf8e73baac45cd1e9d2703bbacf *gd80-09-29d3t09.flac
96afe9c1cb12f9940b0db368000f0e10 *gd80-09-29d3t10.flac

Comments
Add Comment
Other Sources (comments)
Source: Recording... (0) SBD > MC > C > DAT > CD >... (3) flac16; Recording by... (0)
Date User Comment