Browse Collections Artists Sources   Search Dates

Add Show    List Management    Help


Grateful Dead 01/18/79
Providence Civic Center, Providence, RI
Comments Add Comment    Source Collectors    Add to Collection    Add to Want List    History
Source # 106899 Other Sources
Entered by dr.unclear
Checksums ffp , flac-md5
Disc Counts 0 / 0
Media Size
Date Circulated
Date Added
04/03/2010
04/03/2010
Source Summary flac24; FOB AUD: AKG D200E (left mic) plus Shure Dynamic (right mic) > Sony TC-153SD > Maxell UD-XLII 90's. Mics on stand, set up FOB floor "dead center" Sec 5 Row H, taped by Tim Friend. Transfer: MAC > Nakamichi CR5A > Edirol FA-66 > Wavelab 2496 > CD-Wave > TLH > FLAC 2496 Tagged. Transfer by Andrew F. 03/2010 
  Archive
Source Information - Download Text | Download Zip
GRATEFUL DEAD
Civic Center
Providence RI
01-18-1979

24bit/96kHz file-set

s1t01 crowd & tuning
s1t02 Promised Land
s1t03 They Love Eachother
s1t04 Mama Tried
s1t05 Mexicali Blues
s1t06 Friend of the Devil
s1t07 Cassidy
s1t08 Jackaroe
s1t09 Looks Like Rain
s1t10 Ramble on Rose
s1t11 Minglewood Blues
s1t12 Deal

s2t01 crowd & tuning
s2t02 I Need a Miracle >
s2t03 Bertha >
s2t04 Good Lovin'
s2t05 From the Heart of Me
s2t06 Ship of Fools
s2t07 He's Gone >
s2t08 Truckin' >
s2t09 Jam > The Other One >
s2t10 Wharf Rat >
s2t11 Around & Around
s2t12 Encore: U.S. Blues

FOB AUD: AKG D200E (left mic) plus Shure Dynamic (right mic) >
Sony TC-153SD > Maxell UD-XLII 90's. Mics on stand, set up FOB
floor "dead center" Sec 5 Row H, taped by Tim Friend.

Transfer: MAC > Nakamichi CR5A > Edirol FA-66 > Wavelab 2496 >
CD-Wave > TLH > FLAC 2496 Tagged. Transfer by Andrew F. 03/2010

Note: Patches from ID-100210; first 22 seconds of He's Gone, and
from 0:50 of Around & Around thru to the end of U.S. Blues.

    length     expanded size    cdr  WAVE problems  fmt   ratio  filename
     0:50.973      29360684 B   cxx   --   ---xx   flac  0.6115  gd1979-01-18s1t01.flac
     4:51.533     167923244 B   cxx   --   ---xx   flac  0.6373  gd1979-01-18s1t02.flac
     8:21.120     288645164 B   cxx   --   ---xx   flac  0.6238  gd1979-01-18s1t03.flac
     2:48.880      97274924 B   cxx   --   ---xx   flac  0.6313  gd1979-01-18s1t04.flac
     4:46.773     165181484 B   cxx   --   ---xx   flac  0.6348  gd1979-01-18s1t05.flac
    10:24.280     359585324 B   cxx   --   ---xx   flac  0.6205  gd1979-01-18s1t06.flac
     5:34.624     192743540 B   cxx   --   ---xx   flac  0.6309  gd1979-01-18s1t07.flac
     6:05.480     210516524 B   cxx   --   ---xx   flac  0.6069  gd1979-01-18s1t08.flac
     7:47.120     269061164 B   cxx   --   ---xx   flac  0.6070  gd1979-01-18s1t09.flac
    10:04.600     348249644 B   cxx   --   ---xx   flac  0.6093  gd1979-01-18s1t10.flac
     6:18.773     218173484 B   cxx   --   ---xx   flac  0.6201  gd1979-01-18s1t11.flac
     7:42.585     266448818 B   cxx   --   ---xx   flac  0.6196  gd1979-01-18s1t12.flac
     0:57.440      33085484 B   cxx   --   ---xx   flac  0.5929  gd1979-01-18s2t01.flac
     6:10.320     213304364 B   cxx   --   ---xx   flac  0.6290  gd1979-01-18s2t02.flac
     6:53.213     238010924 B   cxx   --   ---xx   flac  0.6317  gd1979-01-18s2t03.flac
     8:00.813     276948524 B   cxx   --   ---xx   flac  0.6296  gd1979-01-18s2t04.flac
     4:55.840     170403884 B   cxx   --   ---xx   flac  0.6095  gd1979-01-18s2t05.flac
     8:34.347     296263724 B   cxx   --   ---xx   flac  0.6074  gd1979-01-18s2t06.flac
    12:53.058     445281566 B   cxx   --   ---xx   flac  0.6292  gd1979-01-18s2t07.flac
     7:49.880     270650924 B   cxx   --   ---xx   flac  0.6465  gd1979-01-18s2t08.flac
    13:22.027     461967404 B   cxx   --   ---xx   flac  0.6418  gd1979-01-18s2t09.flac
    10:14.080     353710124 B   cxx   --   ---xx   flac  0.6338  gd1979-01-18s2t10.flac
     8:27.720     292446764 B   cxx   --   ---xx   flac  0.6484  gd1979-01-18s2t11.flac
     5:43.416     197807888 B   cxx   --   ---xx   flac  0.6608  gd1979-01-18s2t12.flac
   169:38.897    5863045572 B                            0.6273  (24 files)

No errors occured.
Show Checksums
ffp
gd1979-01-18s1t01.flac:e151533fe6a1a56752ad989ad1c52cd2
gd1979-01-18s1t02.flac:0ec417e03fcdb36f5694b9e5c670f24f
gd1979-01-18s1t03.flac:1ccc88235d57cad9f4d55d0677b71318
gd1979-01-18s1t04.flac:5a0c550e4c5b892bfd91448d6ece6578
gd1979-01-18s1t05.flac:24936e7016e4d4162385696eca55256a
gd1979-01-18s1t06.flac:8db7cd3a9735e594f6ce2300a886a4ee
gd1979-01-18s1t07.flac:43c4af4da17365c51efdeb0a8f67da46
gd1979-01-18s1t08.flac:a825d5ed306b01185fa6fb9d6ebf03da
gd1979-01-18s1t09.flac:73ebea07448dc084cad53d44c4fc2d9d
gd1979-01-18s1t10.flac:b0376653f34ef0fd4ec8b03d88833071
gd1979-01-18s1t11.flac:7020359b05247b23615c9111f57042f9
gd1979-01-18s1t12.flac:f40f74e1143808ac31de47a64965025d
gd1979-01-18s2t01.flac:5d5d87a63cefbf687bbc529d1bbe345b
gd1979-01-18s2t02.flac:fd26f1420e29342c63295e93ef3ab5c4
gd1979-01-18s2t03.flac:2be06ad9b1a7a747745b56f03e23ff1e
gd1979-01-18s2t04.flac:7c4aaf980cc4249dd405bfe48af706f2
gd1979-01-18s2t05.flac:452a18a7e2e270ef6f153f391156ef95
gd1979-01-18s2t06.flac:aa838cc9bf35c94a0049042512ba2c45
gd1979-01-18s2t07.flac:1392838d51d756de5e6a16926277bf07
gd1979-01-18s2t08.flac:996ec9e31b68a9b65152b6f8ac2e3a31
gd1979-01-18s2t09.flac:ca4a95a684f324e7bbf5a1d9a908b31c
gd1979-01-18s2t10.flac:bdd35387c4532ac08d63d1828eab8d4b
gd1979-01-18s2t11.flac:48659eb398619f75513b8454905e15ee
gd1979-01-18s2t12.flac:74be91a43358fa8c673fee1b0a75bc19
flac-md5
8ecc9f5bdc2944a3b6cb95519a7154ac *gd1979-01-18s1t01.flac
1b003a068075b10fda2f5736c4657456 *gd1979-01-18s1t02.flac
ff21815822768d2e84606df2b0a08835 *gd1979-01-18s1t03.flac
5e804e99a984a08f081bf1af7e4da7d8 *gd1979-01-18s1t04.flac
3e05df1c3573b002b7ecacb3a0c5cf98 *gd1979-01-18s1t05.flac
673261b5d894815710004574644f15d0 *gd1979-01-18s1t06.flac
95524cc7f52ee11585958f1a99d30b6d *gd1979-01-18s1t07.flac
5affaf514953e427b77814cc6f0765d2 *gd1979-01-18s1t08.flac
8195a5be3268d57f8907b67290a3562b *gd1979-01-18s1t09.flac
d56386562b6a0a5f45341e87edd594b5 *gd1979-01-18s1t10.flac
4dfd0b342f0d636ad6985d9c537a369c *gd1979-01-18s1t11.flac
47e4e3f653c1cc0fe3a69ba1192ce22e *gd1979-01-18s1t12.flac
957a5903d83e3ee939276b4b4098c1c4 *gd1979-01-18s2t01.flac
a85f911c754f2bdd039b2b82b08231f1 *gd1979-01-18s2t02.flac
5cf41124e4851bfc1b11f256deac84cb *gd1979-01-18s2t03.flac
c280f8c6511b860007865bb40b0a3c69 *gd1979-01-18s2t04.flac
4339ac9731dfe1cf85e5f6aedddeee88 *gd1979-01-18s2t05.flac
8e3deffd21850fd3f5405b8e5e431866 *gd1979-01-18s2t06.flac
76dcc3a2431071ad5844d127539c12c7 *gd1979-01-18s2t07.flac
5dd766b5264253db2c5c3387110473d0 *gd1979-01-18s2t08.flac
469bb0e46bc4e8099036f960e8611fda *gd1979-01-18s2t09.flac
b63afe95954855945086649d6acfa99d *gd1979-01-18s2t10.flac
d8c45a5e1abc201aa6507de3fb6ebf13 *gd1979-01-18s2t11.flac
e50d9b301ac74dcee43f80d7726504a4 *gd1979-01-18s2t12.flac

Comments
Add Comment
Other Sources (comments)
Source: FOB AUD Master... (0) Updated lineage: Recording... (1) flac16; Recording... (0) flac24; Recording... (0) flac16; Recording... (2) flac16; SBD ->... (0) flac16; FOB AUD: AKG... (0)
Date User Comment