Browse Collections Artists Sources   Search Dates

Add Show    List Management    Help


Grateful Dead 01/18/79
Providence Civic Center, Providence, RI
Comments Add Comment    Source Collectors    Add to Collection    Add to Want List    History
Source # 106900 Other Sources
Entered by dr.unclear
Checksums ffp , flac-md5
Disc Counts 2 / 3
Media Size
Date Circulated
Date Added
04/03/2010
04/03/2010
Source Summary flac16; FOB AUD: AKG D200E (left mic) plus Shure Dynamic (right mic) > Sony TC-153SD > Maxell UD-XLII 90's. Mics on stand, set up FOB floor "dead center" Sec 5 Row H, taped by Tim Friend. Transfer: MAC > Nakamichi CR5A > Edirol FA-66 > Wavelab 2496 > CD-Wave > R8Brain > TLH > FLAC 1644 Tagged. Transfer by Andrew F. 03/2010 
  Archive
Source Information - Download Text | Download Zip
GRATEFUL DEAD
Civic Center
Providence RI
01-18-1979

16bit/44.1kHz file-set

s1t01 crowd & tuning
s1t02 Promised Land
s1t03 They Love Eachother
s1t04 Mama Tried
s1t05 Mexicali Blues
s1t06 Friend of the Devil
s1t07 Cassidy
s1t08 Jackaroe
s1t09 Looks Like Rain
s1t10 Ramble on Rose
s1t11 Minglewood Blues
s1t12 Deal

s2t01 crowd & tuning
s2t02 I Need a Miracle >
s2t03 Bertha >
s2t04 Good Lovin'
s2t05 From the Heart of Me
s2t06 Ship of Fools
s2t07 He's Gone >
s2t08 Truckin' >
s2t09 Jam > The Other One >
s2t10 Wharf Rat >
s2t11 Around & Around
s2t12 Encore: U.S. Blues

FOB AUD: AKG D200E (left mic) plus Shure Dynamic (right mic) >
Sony TC-153SD > Maxell UD-XLII 90's. Mics on stand, set up FOB
floor "dead center" Sec 5 Row H, taped by Tim Friend.

Transfer: MAC > Nakamichi CR5A > Edirol FA-66 > Wavelab 2496 >
CD-Wave > R8Brain > TLH > FLAC 1644 Tagged. Transfer by Andrew F.
03/2010

Note: Patches from ID-100210; first 22 seconds of He's Gone, and
from 0:50 of Around & Around thru to the end of U.S. Blues.

CDRs: D1 s1t01 > s1t12, D2 s2t01 > s2t06, D3 s2t07 > s2t12.

    length     expanded size    cdr  WAVE problems  fmt   ratio  filename
     0:50.73        8991740 B   ---   --   ---xx   flac  0.5253  gd1979-01-18s1t01.flac
     4:51.40       51426524 B   ---   --   ---xx   flac  0.5704  gd1979-01-18s1t02.flac
     8:21.09       88397612 B   ---   --   ---xx   flac  0.5372  gd1979-01-18s1t03.flac
     2:48.66       29790476 B   ---   --   ---xx   flac  0.5557  gd1979-01-18s1t04.flac
     4:46.58       50586860 B   ---   --   ---xx   flac  0.5647  gd1979-01-18s1t05.flac
    10:24.21      110123036 B   ---   --   ---xx   flac  0.5298  gd1979-01-18s1t06.flac
     5:34.46       59025836 B   ---   --   ---xx   flac  0.5542  gd1979-01-18s1t07.flac
     6:05.36       64470716 B   ---   --   ---xx   flac  0.5061  gd1979-01-18s1t08.flac
     7:47.09       82400012 B   ---   --   ---xx   flac  0.5030  gd1979-01-18s1t09.flac
    10:04.45      106651484 B   ---   --   ---xx   flac  0.5098  gd1979-01-18s1t10.flac
     6:18.58       66815660 B   ---   --   ---xx   flac  0.5346  gd1979-01-18s1t11.flac
     7:42.44       81600332 B   ---   --   ---xx   flac  0.5368  gd1979-01-18s1t12.flac
     0:57.33       10132460 B   ---   --   ---xx   flac  0.4843  gd1979-01-18s2t01.flac
     6:10.24       65324492 B   ---   --   ---xx   flac  0.5599  gd1979-01-18s2t02.flac
     6:53.16       72890876 B   ---   --   ---xx   flac  0.5689  gd1979-01-18s2t03.flac
     8:00.61       84815516 B   ---   --   ---xx   flac  0.5641  gd1979-01-18s2t04.flac
     4:55.63       52186220 B   ---   --   ---xx   flac  0.5123  gd1979-01-18s2t05.flac
     8:34.26       90730796 B   ---   --   ---xx   flac  0.5030  gd1979-01-18s2t06.flac
    12:53.05      136369004 B   ---   --   ---xx   flac  0.5486  gd1979-01-18s2t07.flac
     7:49.66       82886876 B   ---   --   ---xx   flac  0.5931  gd1979-01-18s2t08.flac
    13:22.02      141477548 B   ---   --   ---xx   flac  0.5801  gd1979-01-18s2t09.flac
    10:14.06      108323756 B   ---   --   ---xx   flac  0.5594  gd1979-01-18s2t10.flac
     8:27.54       89561852 B   ---   --   ---xx   flac  0.6036  gd1979-01-18s2t11.flac
     5:43.32       60580508 B   ---   --   ---xx   flac  0.6349  gd1979-01-18s2t12.flac
   169:38.68     1795560192 B                            0.5503  (24 files)

No errors occured.
Show Checksums
ffp
gd1979-01-18s1t01.flac:e3cad887b62217237c46c51e9b975a19
gd1979-01-18s1t02.flac:e9f1f626c4f8bfb1411ea1fb87945702
gd1979-01-18s1t03.flac:984502eca3a2e0ab43dd1f772e759540
gd1979-01-18s1t04.flac:8bb7650b45f562751a094ae6d0398a7f
gd1979-01-18s1t05.flac:53078d5a1d4748ae6a04d76f7beb88de
gd1979-01-18s1t06.flac:acd1ef4a3dfb61fc3a006e5ead13b946
gd1979-01-18s1t07.flac:2fe8a0229ff08830b56ac2f688886d0d
gd1979-01-18s1t08.flac:ff7917de5175d32f740a6627dc20d439
gd1979-01-18s1t09.flac:7c828eef32009178931ef326b9f48ba9
gd1979-01-18s1t10.flac:a942016435fc25f9335a64c2fb72cb79
gd1979-01-18s1t11.flac:ffcc0cd64e76c89f7a8c9566c53fb76d
gd1979-01-18s1t12.flac:a1c5fbfd438b28e3d778378a6d64dda3
gd1979-01-18s2t01.flac:0e132b72bcbb852f3571b1ead7d2a74b
gd1979-01-18s2t02.flac:26e35fd7b4c033cf05cf318136d34e05
gd1979-01-18s2t03.flac:55f45a2d01fe4aee72b41615c93cfb7a
gd1979-01-18s2t04.flac:e8ad97ca4706b1211f93f8f0fdf0f78c
gd1979-01-18s2t05.flac:c2080c45808497cf2a29889e249c4f9c
gd1979-01-18s2t06.flac:c3c4562d8acd22b29e8d629928232a42
gd1979-01-18s2t07.flac:6cbb7a746c2e679453fade2831c857f9
gd1979-01-18s2t08.flac:80fb0f41c153c7e962bb557202857b85
gd1979-01-18s2t09.flac:826cfa0bf03094141340d6c032c755c3
gd1979-01-18s2t10.flac:4af9dca461d582d885dab24882c72dcf
gd1979-01-18s2t11.flac:8ef3844fe738e69c30856661919c0ed5
gd1979-01-18s2t12.flac:46629d9a761a09aed9462c16f02696f1
flac-md5
1da93df431a4f04db63c1deb23951341 *gd1979-01-18s1t01.flac
1664758c6fd665e7a361f2bab8f0f78c *gd1979-01-18s1t02.flac
6970640b300b967056932ac10fcebee9 *gd1979-01-18s1t03.flac
26c70bc78f942567652daf8f1785ff87 *gd1979-01-18s1t04.flac
3ff85cfbd2b69ea01016fb1a0d6134d3 *gd1979-01-18s1t05.flac
2670b3e327fcbc910ca873e7bca79da2 *gd1979-01-18s1t06.flac
fff33472b0e77de0dcde77e68b897cb7 *gd1979-01-18s1t07.flac
f4fe3683d2761c3c8978693d7feb2a81 *gd1979-01-18s1t08.flac
83b0fe05b8e98e0bcd14b35386392b56 *gd1979-01-18s1t09.flac
774e593e3482ce4c4414aaf478b8b526 *gd1979-01-18s1t10.flac
62a32d5407d1b622892d9c4d01731e44 *gd1979-01-18s1t11.flac
279495999127758ca555188f45d9cb8a *gd1979-01-18s1t12.flac
f6c601b9b7a69b5313982ca5523b8b60 *gd1979-01-18s2t01.flac
f78de4e7d7a63a8db47b0e3302edb160 *gd1979-01-18s2t02.flac
501fce5df594c31bfd1dedae24160983 *gd1979-01-18s2t03.flac
c5230349f4ee3a34f0227500ffcfc13b *gd1979-01-18s2t04.flac
1fd0b46fbc290a771848cd4876975059 *gd1979-01-18s2t05.flac
0fa0106dac4978207335e933681ac209 *gd1979-01-18s2t06.flac
e5a8b1c4bf5835a035c16b86e13925ff *gd1979-01-18s2t07.flac
f6320789edc96a9bad9b4aeffdebad42 *gd1979-01-18s2t08.flac
e9aff1e52daccee5a16a7e891fc0115a *gd1979-01-18s2t09.flac
e9615f7b106fe0e96867e1aea6dcee10 *gd1979-01-18s2t10.flac
2b1c10fa41f5000cdd08ac425c6f67c3 *gd1979-01-18s2t11.flac
2006f1ed4d320317fda92cd2181f06f2 *gd1979-01-18s2t12.flac

Comments
Add Comment
Other Sources (comments)
Source: FOB AUD Master... (0) Updated lineage: Recording... (1) flac16; Recording... (0) flac24; Recording... (0) flac16; Recording... (2) flac16; SBD ->... (0) flac24; FOB AUD: AKG... (0)
Date User Comment