Browse Collections Artists Sources   Search Dates

Add Show    List Management    Help


Keith & Donna Band 08/20/75
Great American Music Hall, San Francisco, CA
Comments Add Comment    Source Collectors    Add to Collection    Add to Want List    History
Source # 106912 Other Sources
Entered by Joe Jupille
Checksums ffp , md5
Disc Counts 0 / 0
Media Size
Date Circulated
Date Added
04/03/2010
04/04/2010
Source Summary flac1644; Keith & Donna Band, complete; 2 x Sony ECM280's >> Sony TC 152SD  >> MAC >> Nakamichi CR7a => Korg MR-1000 >> DSF [1-bit 5.6448 MHz Stereo] >> Korg MR-1000 => Korg AudioGate >> WAV [24/96] ... flac1644. 
Source Information - Download Text | Download Zip
MOTB Release: 0135 16/44.1
Release Date: 2010-04-03
Band: Keith and Donna Band
Date: 1975-08-20 (Wednesday)
Venue: Great American Music Hall
Location: San Francisco, CA
Analog Audience Source: FOB Master Cassettes (MAC)
Medium Stock Brands: MAC = 2 x Maxell UD c90's
Analog Lineage: 2 x Sony ECM280's >> Sony TC 152SD  >> MAC
Analog Sound Preservation: MAC >> Nakamichi CR7a => Korg MR-1000 >> DSF [1-bit 5.6448 MHz Stereo] >> Korg MR-1000 => Korg AudioGate >> WAV [24/96]
Taped By: Rheinhart Holwein
Transfer By: Bob Menke
Mastering By: David Minches

Keith and Donna Band Members:
Keith Godchaux - Piano
Donna Godchaux - Vocals
Jerry Garcia - Guitar and Vocals
Ray Scott - Guitar
Mike Larscheid - Bass
Steve Shuster - Saxaphone and Flute

Set One:
d1t01: Knock On Wood
d1t02: Instrumental
d1t03: A Strange Man
d1t04: I Can’t Turn You Loose
d1t05: It Takes A Lot To Laugh It Takes A Train To Cry
d1t06: Instrumental
d1t07: Sweet Baby
d1t08: Instrumental

Set Two:
d2t01: Tough Mama
d2t02: My Love For You
d2t03: Straight Life
d2t04: Come See About Me
d2t05: How Sweet It Is (To Be Loved By You)
d2t06: Showboat

Notes: Tape flip during "It Takes A Lot To Laugh" cross faded due to no other copy of show to patch with.  Pitch correction by Joe B. Jones.

length     expanded size    cdr  WAVE problems  fmt   ratio  filename
     5:30.12       58240268 B   ---   --   ---xx   flac  0.6331  jg1975-08-20.kdb.d1t01.flac
    21:06.64      223472972 B   ---   --   ---xx   flac  0.6228  jg1975-08-20.kdb.d1t02.flac
     4:37.47       48973388 B   ---   --   ---xx   flac  0.5952  jg1975-08-20.kdb.d1t03.flac
     6:49.51       72267596 B   ---   --   ---xx   flac  0.5995  jg1975-08-20.kdb.d1t04.flac
     9:35.32      101505308 B   ---   --   ---xx   flac  0.5716  jg1975-08-20.kdb.d1t05.flac
    11:19.46      119883836 B   ---   --   ---xx   flac  0.6350  jg1975-08-20.kdb.d1t06.flac
    12:26.61      131737916 B   ---   --   ---xx   flac  0.6070  jg1975-08-20.kdb.d1t07.flac
    20:03.01      212211596 B   ---   --   ---xx   flac  0.6421  jg1975-08-20.kdb.d1t08.flac
     9:59.02      105668348 B   ---   --   ---xx   flac  0.6169  jg1975-08-20.kdb.d2t01.flac
    11:12.43      118641980 B   ---   --   ---xx   flac  0.5981  jg1975-08-20.kdb.d2t02.flac
    24:07.20      255297884 B   ---   --   ---xx   flac  0.6400  jg1975-08-20.kdb.d2t03.flac
    11:02.70      116941484 B   ---   --   ---xx   flac  0.6138  jg1975-08-20.kdb.d2t04.flac
     9:58.48      105600140 B   ---   --   ---xx   flac  0.6282  jg1975-08-20.kdb.d2t05.flac
    11:07.65      117811724 B   ---   --   ---xx   flac  0.6381  jg1975-08-20.kdb.d2t06.flac
   168:57.37     1788254440 B                            0.6217  (14 files)
Show Checksums
ffp
jg1975-08-20.kdb.d1t01.flac:dbcc5fcc2a881e7de96f7e48df1fb94b
jg1975-08-20.kdb.d1t02.flac:a5f660f437f17229411607909cc6818b
jg1975-08-20.kdb.d1t03.flac:f0a594bf6135db50fc3e0390c2d771a8
jg1975-08-20.kdb.d1t04.flac:62d4d586d7c1fbf43e99e2cf25452ab1
jg1975-08-20.kdb.d1t05.flac:f0a3904d2001fbdbd6ad5c0e757d3fed
jg1975-08-20.kdb.d1t06.flac:701f0aa2895f0abe78f5eed5568436e5
jg1975-08-20.kdb.d1t07.flac:633a6d6a4ffb2a7e996170150994598c
jg1975-08-20.kdb.d1t08.flac:7e1b36df63902893da0f9c15681ffe96
jg1975-08-20.kdb.d2t01.flac:2342e7a007e0e12a965972a99af32969
jg1975-08-20.kdb.d2t02.flac:dc60ffa91034b53bb7a873f9eacd4ec8
jg1975-08-20.kdb.d2t03.flac:cdaaee1a185ac5ad9ecfe46c15c4b639
jg1975-08-20.kdb.d2t04.flac:56f7e706ecdbe0560a5e92b6e1fce7ee
jg1975-08-20.kdb.d2t05.flac:f2d10e6a7ec40ef7901f3434921718fe
jg1975-08-20.kdb.d2t06.flac:b13c6a53c258ad770ae5dce3a34e9bb6
md5
008366ae1766d6b035938ec2db2ebd58 *jg1975-08-20.kdb.d1t01.flac
9c7f31263ba97d74fc97bf0ef5cd89e0 *jg1975-08-20.kdb.d1t02.flac
c77a93d512d397ff5389a6f5cff61311 *jg1975-08-20.kdb.d1t03.flac
ba4b6b8f6193f2058c5536000bdb2ddb *jg1975-08-20.kdb.d1t04.flac
c614e9cf7b406746286c7d62fbeff8b6 *jg1975-08-20.kdb.d1t05.flac
1eb54e998cc1aa206b8738ca8706273b *jg1975-08-20.kdb.d1t06.flac
cf2bdfa7cecda6b1b081fc6fd59aa062 *jg1975-08-20.kdb.d1t07.flac
1f049bb089bd01abc9fb7f5ca1c20208 *jg1975-08-20.kdb.d1t08.flac
1b2474ba565a89d5523088492b4cf10e *jg1975-08-20.kdb.d2t01.flac
edfbca073a9c6bed7345b6b23c940324 *jg1975-08-20.kdb.d2t02.flac
e1eab402fef91439f43a826d2ba41c25 *jg1975-08-20.kdb.d2t03.flac
b3987001e2d7333de09a21882263d18c *jg1975-08-20.kdb.d2t04.flac
c1330bb2244786ee8b0a86eefdf4697e *jg1975-08-20.kdb.d2t05.flac
e6d3e0a5022b958f606502e61b4f4442 *jg1975-08-20.kdb.d2t06.flac

Comments
Add Comment
Other Sources (comments)
MSC>1 Reel>DAT>CDR>WAV>SHN (0)
Date User Comment