Browse Collections Artists Sources   Search Dates

Add Show    List Management    Help


Grateful Dead 05/12/80
Boston Garden, Boston, MA
Comments Add Comment    Source Collectors    Add to Collection    Add to Want List    History
Source # 107022 Other Sources
Entered by Gary Field
Checksums ffp , flac-md5
Disc Counts 2 / 3
Media Size
Date Circulated
Date Added
04/11/1980
04/11/2010
Source Summary flac16; AUD: 2x Nakamichi CM300/CP1's > Sony TC-153SD > Maxell XLII's. Mics on stand, set up in center of upper balcony behind the stage, mics pointed at rear-facing P.A. Taped by Tim Friend & Joe Morrone. Transfer: MAC > Re-shelled > Nakamichi DR-8 > Edirol FA-66 > Wavelab 2448 > R8Brain > CD-Wave > TLH > FLAC 1644 Tagged. Transfer by Andrew F. 04/2010 
  Archive
Source Information - Download Text | Download Zip
GRATEFUL DEAD
Boston Garden
Boston MA
05-12-1980

16bit/44.1kHz file-set

s1t01 crowd & tuning
s1t02 Jack Straw >
s1t03 Alabama Getaway >
s1t04 El Paso
s1t05 Althea
s1t06 Lazy Lightnin' > Supplication
s1t07 Far From Me >
s1t08 Minglewood Blues
s1t09 China Cat Sunflower >
s1t10 I Know You Rider

s2t01 crowd & tuning
s2t02 Feel Like a Stranger
s2t03 Ship of Fools >
s2t04 Estimated Prophet >
s2t05 He's Gone >
s2t06 Jam >
s2t07 Drums >
s2t08 Space >
s2t09 Saint of Circumstance >
s2t10 Wharf Rat >
s2t11 Sugar Magnolia
s2t12 crowd & tuning
s2t13 Encore: U.S. Blues

AUD: 2x Nakamichi CM300/CP1's > Sony TC-153SD > Maxell XLII's.
Mics on stand, set up in center of upper balcony behind the
stage, mics pointed at rear-facing P.A. Taped by Tim Friend & Joe Morrone.

Transfer: MAC > Re-shelled > Nakamichi DR-8 > Edirol FA-66 >
Wavelab 2448 > R8Brain > CD-Wave > TLH > FLAC 1644 Tagged.
Transfer by Andrew F. 04/2010

Note: Tape-flips patched with ID-5922; Minglewood 6:48 > 7:02,
and He's Gone 10:43 > 11:09.

CDRs: D1 s1t01 > s1t10, D2 s2t01 > s2t07, D3 s2t08 > s2t13.

    length     expanded size    cdr  WAVE problems  fmt   ratio  filename
     1:58.25       20874044 B   ---   --   ---xx   flac  0.5601  gd1980-05-12s1t01.flac
     5:36.29       59338652 B   ---   --   ---xx   flac  0.6083  gd1980-05-12s1t02.flac
     5:03.48       53562140 B   ---   --   ---xx   flac  0.6193  gd1980-05-12s1t03.flac
     5:06.04       53987852 B   ---   --   ---xx   flac  0.5774  gd1980-05-12s1t04.flac
     9:27.53      100143500 B   ---   --   ---xx   flac  0.5832  gd1980-05-12s1t05.flac
     9:55.63      105106220 B   ---   --   ---xx   flac  0.5980  gd1980-05-12s1t06.flac
     3:45.57       39824108 B   ---   --   ---xx   flac  0.6149  gd1980-05-12s1t07.flac
     9:11.40       97290524 B   ---   --   ---xx   flac  0.6127  gd1980-05-12s1t08.flac
     5:17.40       56012924 B   ---   --   ---xx   flac  0.6071  gd1980-05-12s1t09.flac
     6:45.60       71583164 B   ---   --   ---xx   flac  0.6197  gd1980-05-12s1t10.flac
     1:23.56       14772956 B   ---   --   ---xx   flac  0.5421  gd1980-05-12s2t01.flac
     9:40.42      102410828 B   ---   --   ---xx   flac  0.5956  gd1980-05-12s2t02.flac
     8:18.55       87976604 B   ---   --   ---xx   flac  0.5608  gd1980-05-12s2t03.flac
    11:20.06      119966156 B   ---   --   ---xx   flac  0.5876  gd1980-05-12s2t04.flac
    11:40.73      123651740 B   ---   --   ---xx   flac  0.5753  gd1980-05-12s2t05.flac
    10:14.29      108377852 B   ---   --   ---xx   flac  0.5931  gd1980-05-12s2t06.flac
     7:53.22       83488988 B   ---   --   ---xx   flac  0.5491  gd1980-05-12s2t07.flac
     2:31.51       26756396 B   ---   --   ---xx   flac  0.5276  gd1980-05-12s2t08.flac
     5:32.54       58691852 B   ---   --   ---xx   flac  0.6118  gd1980-05-12s2t09.flac
     8:50.55       93621404 B   ---   --   ---xx   flac  0.5623  gd1980-05-12s2t10.flac
     8:16.00       87494444 B   ---   --   ---xx   flac  0.6142  gd1980-05-12s2t11.flac
     1:17.74       13756892 B   ---   --   ---xx   flac  0.5532  gd1980-05-12s2t12.flac
     5:34.48       59030540 B   ---   --   ---xx   flac  0.6192  gd1980-05-12s2t13.flac
   154:44.09     1637719780 B                            0.5902  (23 files)

No errors occured.

Show Checksums
ffp
gd1980-05-12s1t01.flac:31a1df4f6433eb8f92998c4d1397be92
gd1980-05-12s1t02.flac:84316c74e976d3a9c54d4cb75cc0df24
gd1980-05-12s1t03.flac:c55b269edcd57ae145761427a959a06e
gd1980-05-12s1t04.flac:e8055dd744bb43de1d278fbcca8dbb9d
gd1980-05-12s1t05.flac:e8c94e9d4d9056ade9934f187fd4b0d9
gd1980-05-12s1t06.flac:1f89951b6a6b96c42f30c1edcc4ab9a2
gd1980-05-12s1t07.flac:5f7ab57d2e91d1a43a38758e00f55f64
gd1980-05-12s1t08.flac:790e83a1bc58b15abae6f6e3c5d596a9
gd1980-05-12s1t09.flac:e0634a82b54a175602a2b6f622ad2a22
gd1980-05-12s1t10.flac:5e8e92b6e29704ee9c2c26bd1414ca6e
gd1980-05-12s2t01.flac:d5f92201409827104035a25f8ee9173b
gd1980-05-12s2t02.flac:39b79d522672a6f673a57c07d2c0793a
gd1980-05-12s2t03.flac:1c26420e658e659491bc596608d16924
gd1980-05-12s2t04.flac:e04de4db99983708d490d12610522378
gd1980-05-12s2t05.flac:3d4ce322bf2fe235517881240104a5f6
gd1980-05-12s2t06.flac:a6021130e8c676e300c1a21803c2f18f
gd1980-05-12s2t07.flac:268049439d4e18b87fc69aa614d35934
gd1980-05-12s2t08.flac:e28d8f65e7c8ef833d6add4ac2ab3cb7
gd1980-05-12s2t09.flac:1594749094aaae1ff521a859393f2484
gd1980-05-12s2t10.flac:8c286321ffc88977eed7c8de4dd23488
gd1980-05-12s2t11.flac:35e89a0e6b0ff26b7fec1b0e6872aab5
gd1980-05-12s2t12.flac:704e4ee4f0c8b39f8ae33602f97aba6f
gd1980-05-12s2t13.flac:1c2222e058ce16df6287d4a7bd2ae213
flac-md5
56f12ec125539b38471e61af0982f09e *gd1980-05-12s1t01.flac
14d4c6e7a391cb3be3034203665e4131 *gd1980-05-12s1t02.flac
426ea00996b3011cad88bb1e33bef69b *gd1980-05-12s1t03.flac
6984baf14faa1567679ee2004c0a36fe *gd1980-05-12s1t04.flac
5d5a78ea92b9a8c7bd8bfc4f8a79c0b0 *gd1980-05-12s1t05.flac
d52010140b3b679e79a12a320333c4cc *gd1980-05-12s1t06.flac
0eb9414d283588af25af8feb49af731e *gd1980-05-12s1t07.flac
64794721a2d5d69119329d28820e0264 *gd1980-05-12s1t08.flac
7213585f35590824268c106cbe60610d *gd1980-05-12s1t09.flac
bad6c865473b5d01811ea89fef43a0e4 *gd1980-05-12s1t10.flac
ca415b56b5d0dc2d5001d5abc7ceefd2 *gd1980-05-12s2t01.flac
eb98dff20ad439ece4589f1594d1b9fb *gd1980-05-12s2t02.flac
5a985aa25ebec06c90cb419d1c4e420b *gd1980-05-12s2t03.flac
7b8d877670a2c053259c9451ab884ec6 *gd1980-05-12s2t04.flac
cad84e8d2bf4f6bfb4ab1c01bbd4a309 *gd1980-05-12s2t05.flac
accdb3c42698d64d9b055a906c91e422 *gd1980-05-12s2t06.flac
b56b11b68e43858ec8fa991de98f2b9a *gd1980-05-12s2t07.flac
a8f212726a7a69adfcf0bd8d51e76be3 *gd1980-05-12s2t08.flac
cfaa5b92a62de4901df0c7b8e68b2f56 *gd1980-05-12s2t09.flac
d1f7a8a8d794df30f36673a86bbea998 *gd1980-05-12s2t10.flac
39ec226bd81f7b189efc3434a081230f *gd1980-05-12s2t11.flac
f2016835e88bb60e68e41ced570780dd *gd1980-05-12s2t12.flac
3514ae54315c65dbe5b91039ecb26913 *gd1980-05-12s2t13.flac

Comments
Add Comment
Other Sources (comments)
Recording by Steve Rolfe:... (1) flac16; Recording... (2) flac16 Recording... (0) flac16; Source: Sony... (0) flac24; AUD: 2x... (2) flac16; Matrix 70%... (0)
Date User Comment
02/02/2013 nfagdtrfb text file correction: taped by Tim Friend & Joe Morrone, thanks guys!
02/03/2013 Wharfrat73 Updated info file.