Browse Collections Artists Sources   Search Dates

Add Show    List Management    Help


Grateful Dead 08/12/79
Red Rocks Ampitheatre, Morrison, CO
Comments Add Comment    Source Collectors    Add to Collection    Add to Want List    History
Source # 107166 Other Sources
Entered by Matt Vernon
Checksums ffp , flac-md5
Disc Counts 2 / 3
Media Size
Date Circulated
Date Added
04/17/2010
04/17/2010
Source Summary flac16; Analog Audience Source: Aud Master Cassettes (MAC) Medium Stock Brands: MAC = 3 x Maxell UDXLII 90 Analog Lineage: Nak CM 700s => Sony TC-D5 >> MAC Analog Sound Preservation: MAC >> Nakamichi CR7a => Korg MR-1000 >> DSF [1-bit 5.6448 MHz Stereo] >> Korg MR-1000 => Korg AudioGate >> WAV [24/96] Taped By: Bob Menke 
  Archive
Source Information - Download Text | Download Zip
MOTB Release: 0137 16/44.1
Release Date: 2010-04-17
Band: Grateful Dead
Date: 1979-08-12 (Saturday)
Venue: Red Rocks Amphitheatre
Location: Morrison, CO
Analog Audience Source: Aud Master Cassettes (MAC)
Medium Stock Brands: MAC = 3 x Maxell UDXLII 90
Analog Lineage: Nak CM 700s => Sony TC-D5 >> MAC
Analog Sound Preservation: MAC >> Nakamichi CR7a => Korg MR-1000 >> DSF [1-bit 5.6448 MHz Stereo] >> Korg MR-1000 => Korg AudioGate >> WAV [24/96]
Taped By: Bob Menke
Transfer By: Bob Menke
Mastering By: Derek McCabe



Set 1:
Disc One
d1t01: Promised Land
d1t02: They Love Each Other
d1t03: Mama Tried >
d1t04: Mexicali Blues
d1t05: Peggy-O
d1t06: Lazy Lightnin' >
d1t07: Supplication
d1t08: Brown Eyed Women
d1t09: Looks Like Rain
d1t10: Althea ->
d1t11: Passenger

Set 2:
Disc Two
d2t01: Tuning
d2t02: China Cat Sunflower >
d2t03: I Know You Rider
d2t04: The Lost Sailor
d2t05: Don't Ease Me In
d2t06: Estimated Prophet >
d2t07: Eyes Of The World >
d2t08: Jam >

Disc Three (Set 2 cont)
d3t01: Drums >
d3t02: Space >
d3t03: Not Fade Away >
d3t04: Black Peter >
d3t05: Around & Around
~encore~
d3t06: U.S. Blues

Notes: Patches in Drums and Around And Around using Rheinhart Holweins masters.


length     expanded size    cdr  WAVE problems  fmt   ratio  filename
     5:18.57       56229308 B   ---   --   ---xx   flac  0.5562  gd1979-08-12.aud.menke.d1t01.flac
     7:29.74       79377692 B   ---   --   ---xx   flac  0.5358  gd1979-08-12.aud.menke.d1t02.flac
     2:37.51       27814796 B   ---   --   ---xx   flac  0.5483  gd1979-08-12.aud.menke.d1t03.flac
     5:22.56       56932556 B   ---   --   ---xx   flac  0.5555  gd1979-08-12.aud.menke.d1t04.flac
     9:24.16       99527276 B   ---   --   ---xx   flac  0.5333  gd1979-08-12.aud.menke.d1t05.flac
     3:30.57       37178108 B   ---   --   ---xx   flac  0.5699  gd1979-08-12.aud.menke.d1t06.flac
     4:37.43       48963980 B   ---   --   ---xx   flac  0.5828  gd1979-08-12.aud.menke.d1t07.flac
     6:20.12       67060268 B   ---   --   ---xx   flac  0.5438  gd1979-08-12.aud.menke.d1t08.flac
     7:47.37       82465868 B   ---   --   ---xx   flac  0.5228  gd1979-08-12.aud.menke.d1t09.flac
     7:49.67       82889228 B   ---   --   ---xx   flac  0.5923  gd1979-08-12.aud.menke.d1t10.flac
     4:58.40       52661324 B   ---   --   ---xx   flac  0.6310  gd1979-08-12.aud.menke.d1t11.flac
     0:58.10       10254764 B   ---   --   ---xx   flac  0.4644  gd1979-08-12.aud.menke.d2t01.flac
     5:19.71       56438636 B   ---   --   ---xx   flac  0.5833  gd1979-08-12.aud.menke.d2t02.flac
     6:03.33       64110860 B   ---   --   ---xx   flac  0.6090  gd1979-08-12.aud.menke.d2t03.flac
     8:34.74       90843692 B   ---   --   ---xx   flac  0.5349  gd1979-08-12.aud.menke.d2t04.flac
     3:26.33       36416060 B   ---   --   ---xx   flac  0.6244  gd1979-08-12.aud.menke.d2t05.flac
    14:51.55      157301804 B   ---   --   ---xx   flac  0.5439  gd1979-08-12.aud.menke.d2t06.flac
    10:34.37      111924668 B   ---   --   ---xx   flac  0.5799  gd1979-08-12.aud.menke.d2t07.flac
     8:46.58       92922860 B   ---   --   ---xx   flac  0.5394  gd1979-08-12.aud.menke.d2t08.flac
    11:44.48      124298540 B   ---   --   ---xx   flac  0.5183  gd1979-08-12.aud.menke.d3t01.flac
     4:25.72       46915388 B   ---   --   ---xx   flac  0.4994  gd1979-08-12.aud.menke.d3t02.flac
    13:47.10      145906364 B   ---   --   ---xx   flac  0.5608  gd1979-08-12.aud.menke.d3t03.flac
    10:17.24      108895292 B   ---   --   ---xx   flac  0.5246  gd1979-08-12.aud.menke.d3t04.flac
     7:57.54       84269852 B   ---   --   ---xx   flac  0.5981  gd1979-08-12.aud.menke.d3t05.flac
     5:47.10       61234364 B   ---   --   ---xx   flac  0.5926  gd1979-08-12.aud.menke.d3t06.flac
   177:53.49     1882833548 B                            0.5564  (25 files)
Show Checksums
ffp
gd1979-08-12.aud.menke.d1t01.flac:d33ad9654a15ad0ea703881872d56395
gd1979-08-12.aud.menke.d1t02.flac:ef9187c6d635e90844a0253ab99a1482
gd1979-08-12.aud.menke.d1t03.flac:bcb70971a90636aa87db628b2cc74af8
gd1979-08-12.aud.menke.d1t04.flac:d7d9e9474d28aa78669c158cfac57aaf
gd1979-08-12.aud.menke.d1t05.flac:40aa497911a2676b7e57ef6a6f23ca89
gd1979-08-12.aud.menke.d1t06.flac:48ecd7130606442114691f9ccddfb0c0
gd1979-08-12.aud.menke.d1t07.flac:cef216239a4e796557f04e36602aff08
gd1979-08-12.aud.menke.d1t08.flac:d3eaf70f88be4d4ebcb89b0e48eeb5b3
gd1979-08-12.aud.menke.d1t09.flac:9008d492b239a66906758c180c4e300e
gd1979-08-12.aud.menke.d1t10.flac:a440839b2568627da9456ac0ca9d47db
gd1979-08-12.aud.menke.d1t11.flac:6cce14f484c5707c230ed33f2fde0d8b
gd1979-08-12.aud.menke.d2t01.flac:4f0992d2d7b8b0e2f27501105534c8e6
gd1979-08-12.aud.menke.d2t02.flac:7161beb7b3e13a4aa59981fad31372a8
gd1979-08-12.aud.menke.d2t03.flac:284edd477fdc1ad86c45193d46a15fd5
gd1979-08-12.aud.menke.d2t04.flac:3792935d9fe770f597d17bbfe83f87a0
gd1979-08-12.aud.menke.d2t05.flac:7c5a756012193022da6e24ac7b30f9a9
gd1979-08-12.aud.menke.d2t06.flac:981f798d9fd803532fd861f5d87d9baa
gd1979-08-12.aud.menke.d2t07.flac:c704482cbb8ad2ed8f9f5fa121e4e4dd
gd1979-08-12.aud.menke.d2t08.flac:8fdc8425ac69a9f3dd4c784dd4f9fcc9
gd1979-08-12.aud.menke.d3t01.flac:63160810d81b40399d160a89716e67f5
gd1979-08-12.aud.menke.d3t02.flac:e8c897d29161036ffda03e9c475901b9
gd1979-08-12.aud.menke.d3t03.flac:bb7830ac4c73d3d5bb69a1c6aa318dbe
gd1979-08-12.aud.menke.d3t04.flac:ec4c3936382966be5aa6877595d4a307
gd1979-08-12.aud.menke.d3t05.flac:fb77a0b15266678282688f9b9025a914
gd1979-08-12.aud.menke.d3t06.flac:f9f10abb09acf92358db408c77ca75e9
flac-md5
f0a11644ad5f7aca28063a239cfcd4c9 *gd1979-08-12.aud.menke.d1t01.flac
bd044088157a5481226e963d70b1c739 *gd1979-08-12.aud.menke.d1t02.flac
53903cfeb5c32dd137a84aecbaef2126 *gd1979-08-12.aud.menke.d1t03.flac
ba06bfc2234a02cb483ff1570f8966ed *gd1979-08-12.aud.menke.d1t04.flac
4e92f2e6b7bf57797012460e57cbc451 *gd1979-08-12.aud.menke.d1t05.flac
8a5160649268a6f40bc7887bd93d06f3 *gd1979-08-12.aud.menke.d1t06.flac
4b867d446614f83814d9d58268fb1e37 *gd1979-08-12.aud.menke.d1t07.flac
04fe59721e7f18f17af5b67372e2a339 *gd1979-08-12.aud.menke.d1t08.flac
46414ca722bbe2f89e8c94bfa1bcc28b *gd1979-08-12.aud.menke.d1t09.flac
e1f52b2cd366b3769c94808cac043db8 *gd1979-08-12.aud.menke.d1t10.flac
157aeed930b65ab4174c0981a8f0ebb6 *gd1979-08-12.aud.menke.d1t11.flac
3690c7ba2b31349ede96d37cabfe30c6 *gd1979-08-12.aud.menke.d2t01.flac
33ffb2ab942226b95f5561098181aa9c *gd1979-08-12.aud.menke.d2t02.flac
1d4c39e86476d8029acb1b57a468534f *gd1979-08-12.aud.menke.d2t03.flac
c84b135a6a6b15ab1831ae11ef573411 *gd1979-08-12.aud.menke.d2t04.flac
f27592c09098c2a56abd403ba519451c *gd1979-08-12.aud.menke.d2t05.flac
760870a268422e7e2a6750ac6a6c690f *gd1979-08-12.aud.menke.d2t06.flac
f114af3dcfdbe10651b2379100927701 *gd1979-08-12.aud.menke.d2t07.flac
c1f0174e7c463715fe54054c532b9e8b *gd1979-08-12.aud.menke.d2t08.flac
343e092fc90ae76df6dcc60b9d194e81 *gd1979-08-12.aud.menke.d3t01.flac
f0165ef38f5c834b058ef2b4b99bccf9 *gd1979-08-12.aud.menke.d3t02.flac
8fde9be7718be2701797e3ba6b31d6b5 *gd1979-08-12.aud.menke.d3t03.flac
64c4c16226f819f71e5ae56a1668c1f9 *gd1979-08-12.aud.menke.d3t04.flac
32b3d7284b7b80fca8b9721474ae8816 *gd1979-08-12.aud.menke.d3t05.flac
62d0b16a1db678ea8a0aacfa737bdaba *gd1979-08-12.aud.menke.d3t06.flac

Comments
Add Comment
Other Sources (comments)
Master Soundboard Cassette... (5) flac16; Seamless fix... (4) flac16; Master... (0) flac16; Recording... (3)
Date User Comment