Browse Collections Artists Sources   Search Dates

Add Show    List Management    Help


Grateful Dead 05/11/80
Cumberland County Civic Center, Portland, ME
Comments Add Comment    Source Collectors    Add to Collection    Add to Want List    History
Source # 107226 Other Sources
Entered by Gary Field
Checksums ffp , flac-md5
Disc Counts 0 / 0
Media Size
Date Circulated
Date Added
04/19/2010
04/19/2010
Source Summary flac24; AUD: 2x Nakamichi CM300/CP1's > Sony TC-153SD > Maxell XLII's. Mics on stand "next to the soundboard". Taped by Tim Friend & Joe Morrone. Transfer: MAC > Nakamichi CR5A > Edirol FA-66 > Wavelab 2448 > CD-Wave > TLH > FLAC 2448 Tagged. Transfer by Andrew F. 04/2010 
  Archive
Source Information - Download Text | Download Zip
GRATEFUL DEAD
Cumberland County Civic Center
Portland ME
05-11-1980

24bit/48kHz file-set

s1t01 crowd & tuning
s1t02 Alabama Getaway >
s1t03 The Promised Land
s1t04 They Love Eachother
s1t05 Cassidy
s1t06 take a step back
s1t07 Loser
s1t08 It's All Over Now
s1t09 Easy to Love You
s1t10 Big Railroad Blues
s1t11 Looks Like Rain
s1t12 Don't Ease Me In
s1t13 The Music Never Stopped

s2t01 crowd & tuning
s2t02 Scarlet Begonias >
s2t03 Fire on the Mountain
s2t04 crowd & tuning
s2t05 Feel Like a Stranger >
s2t06 Terrapin >
s2t07 Playin' in the Band >
s2t08 Drums >
s2t09 Space >
s2t10 Black Peter >
s2t11 Goin' Down the Road >
s2t12 Around & Around >
s2t13 Johnny B. Goode
s2t14 Encore: Brokedown Palace

AUD: 2x Nakamichi CM300/CP1's > Sony TC-153SD > Maxell XLII's.
Mics on stand "next to the soundboard". Taped by Tim Friend & Joe Morrone.

Transfer: MAC > Nakamichi CR5A > Edirol FA-66 > Wavelab 2448 >
CD-Wave > TLH > FLAC 2448 Tagged. Transfer by Andrew F. 04/2010

Note: ID-97523 patches; LLR 0:07 > 0:20, and PITB 6:38 > 7:02.

    length     expanded size    cdr  WAVE problems  fmt   ratio  filename
     0:48.813      14058284 B   cxx   --   ---xx   flac  0.6942  gd1980-05-11s1t01.flac
     4:32.240      78405164 B   cxx   --   ---xx   flac  0.7259  gd1980-05-11s1t02.flac
     4:36.827      79726124 B   cxx   --   ---xx   flac  0.7229  gd1980-05-11s1t03.flac
     8:00.027     138247724 B   cxx   --   ---xx   flac  0.6999  gd1980-05-11s1t04.flac
     5:00.627      86580524 B   cxx   --   ---xx   flac  0.7175  gd1980-05-11s1t05.flac
     1:16.067      21907244 B   cxx   --   ---xx   flac  0.6768  gd1980-05-11s1t06.flac
     8:22.387     144687404 B   cxx   --   ---xx   flac  0.6943  gd1980-05-11s1t07.flac
     9:03.640     156568364 B   cxx   --   ---xx   flac  0.7144  gd1980-05-11s1t08.flac
     4:19.240      74661164 B   cxx   --   ---xx   flac  0.7041  gd1980-05-11s1t09.flac
     4:47.507      82801964 B   cxx   --   ---xx   flac  0.7248  gd1980-05-11s1t10.flac
     8:54.467     153926444 B   cxx   --   ---xx   flac  0.6947  gd1980-05-11s1t11.flac
     3:14.387      55983404 B   cxx   --   ---xx   flac  0.7215  gd1980-05-11s1t12.flac
     7:51.377     135756746 B   cxx   --   ---xx   flac  0.7231  gd1980-05-11s1t13.flac
     0:47.653      13724204 B   cxx   --   ---xx   flac  0.6655  gd1980-05-11s2t01.flac
     6:29.373     112139564 B   cxx   --   ---xx   flac  0.7167  gd1980-05-11s2t02.flac
     9:05.280     157040684 B   cxx   --   ---xx   flac  0.7208  gd1980-05-11s2t03.flac
     1:52.240      32325164 B   cxx   --   ---xx   flac  0.6670  gd1980-05-11s2t04.flac
     7:28.973     129304364 B   cxx   --   ---xx   flac  0.7160  gd1980-05-11s2t05.flac
    12:09.640     210136364 B   cxx   --   ---xx   flac  0.7081  gd1980-05-11s2t06.flac
     9:08.773     158046764 B   cxx   --   ---xx   flac  0.7166  gd1980-05-11s2t07.flac
     2:11.400      37843244 B   cxx   --   ---xx   flac  0.7003  gd1980-05-11s2t08.flac
     5:56.067     102547244 B   cxx   --   ---xx   flac  0.6858  gd1980-05-11s2t09.flac
     9:09.600     158284844 B   cxx   --   ---xx   flac  0.6884  gd1980-05-11s2t10.flac
     7:14.720     125199404 B   cxx   --   ---xx   flac  0.7274  gd1980-05-11s2t11.flac
     3:52.800      67046444 B   cxx   --   ---xx   flac  0.7180  gd1980-05-11s2t12.flac
     4:52.853      84341804 B   cxx   --   ---xx   flac  0.7244  gd1980-05-11s2t13.flac
     6:50.737     118292312 B   cxx   --   ---xx   flac  0.6919  gd1980-05-11s2t14.flac
   157:57.714    2729582958 B                            0.7090  (27 files)

No errors occured.

Show Checksums
ffp
gd1980-05-11s1t01.flac:ed9a39b9aed800ebb96bd6476efb2d07
gd1980-05-11s1t02.flac:6cca1510265428ffa2b95848f518f40f
gd1980-05-11s1t03.flac:c24a20328395491b41a13ec539fb164c
gd1980-05-11s1t04.flac:ecfe9b56f48b16138756983f1aa9109c
gd1980-05-11s1t05.flac:bfa4d36b45f405c4de6838a0dbc59872
gd1980-05-11s1t06.flac:7dda35a829d594d0c9a0c547fa085079
gd1980-05-11s1t07.flac:20d32ee9e84851a70d445f50ed627d59
gd1980-05-11s1t08.flac:efe69968c83583eba2a05f06bb0f11a5
gd1980-05-11s1t09.flac:046a9d877bc99ef7b25ac28f98680a6e
gd1980-05-11s1t10.flac:f3c693c1f051f03b3c429db0c0aa702f
gd1980-05-11s1t11.flac:47f0225eab5c6eef1ad0573a556d63f5
gd1980-05-11s1t12.flac:190193d39ac9e36ca174075586226c12
gd1980-05-11s1t13.flac:5a97d0d5d9a2ad0d2422a60936fc2029
gd1980-05-11s2t01.flac:d392255bf5d5321cece92f8007333ce1
gd1980-05-11s2t02.flac:d051ebe065d1a2120092e9a1c0e49363
gd1980-05-11s2t03.flac:8ee841887a9dd17eedda947fc6e13b2a
gd1980-05-11s2t04.flac:b6e3a0c3c803270b1ac7ea392d086bac
gd1980-05-11s2t05.flac:46832c99e8f9aab4b362ffa4d704cd1c
gd1980-05-11s2t06.flac:3850e5b1096f463eb64486671863648e
gd1980-05-11s2t07.flac:c8f99415e5830a216185bbc61862769a
gd1980-05-11s2t08.flac:41bd74a6825cce8bce7f46fb563a3870
gd1980-05-11s2t09.flac:3b268ee8c15384f6dce2e59310622c88
gd1980-05-11s2t10.flac:148ad835ec19fdc679cb3d53b7bbdec0
gd1980-05-11s2t11.flac:dcf66b159bfd601bfebc3bd7bffa8ced
gd1980-05-11s2t12.flac:4455760b9342c1b179dd23232f874518
gd1980-05-11s2t13.flac:8c6a98a3f0eef4a47aecedcb27453285
gd1980-05-11s2t14.flac:307471aace5ddddd9035481795e6f9a6
flac-md5
649c51acb3e2effaf61cdcdbb9a04b4e *gd1980-05-11s1t01.flac
1149abf1ace42a965e4889940f4f827a *gd1980-05-11s1t02.flac
74e95a2b5ffbda4f1f4809a3ec3e97ee *gd1980-05-11s1t03.flac
069ba4995d28133cc5b21fe7cb56ad01 *gd1980-05-11s1t04.flac
4165139387ba2d62a1093d693be8609b *gd1980-05-11s1t05.flac
cbaca274a5d922d42c4ed75d59290e5c *gd1980-05-11s1t06.flac
59e71025aaf700dd3b96b2ab6e2923ea *gd1980-05-11s1t07.flac
1743d53511f920b2116c3c648974ecb4 *gd1980-05-11s1t08.flac
a4168708571bc266e59274146c38bb7c *gd1980-05-11s1t09.flac
4bd9cbef694afe7999ae1dcd2f161b4e *gd1980-05-11s1t10.flac
10fa0e845534805061ab0cdf3e265d61 *gd1980-05-11s1t11.flac
b74d850d28b4dc9f4f65dfef8a487dfa *gd1980-05-11s1t12.flac
1ac40c268fbae435b7b86e80ed92252f *gd1980-05-11s1t13.flac
25da1d25b7458410009935b1a51b1850 *gd1980-05-11s2t01.flac
b317c4012a02fe24b35fefda38f2bc48 *gd1980-05-11s2t02.flac
36ae85a7fba6cd05e7e3547b439e8be6 *gd1980-05-11s2t03.flac
ea2e31dd9211c4675ed02d224a18903b *gd1980-05-11s2t04.flac
e9845cbe8b0a3b9373b6715b0d176940 *gd1980-05-11s2t05.flac
4bdb981473d3111a53b9005715792825 *gd1980-05-11s2t06.flac
05f69ba67600d6b7e8cf7cbc0ad17cec *gd1980-05-11s2t07.flac
f680805d4ac4c17d4a0959fe90a3c1bb *gd1980-05-11s2t08.flac
76b2f6a1019d179aa2422cc531dfb678 *gd1980-05-11s2t09.flac
ca41271bccd8a30957b8f1ca4f05b5e4 *gd1980-05-11s2t10.flac
be925eda056c110bf881f7f464bd3b8f *gd1980-05-11s2t11.flac
a42d2282ec16d2784e731429aaf025a9 *gd1980-05-11s2t12.flac
2a56756ce2cee985d606c4392ca2b621 *gd1980-05-11s2t13.flac
895091b550e17a8bc0d91245e03fa593 *gd1980-05-11s2t14.flac

Comments
Add Comment
Other Sources (comments)
Nak 300's>Sony D5>master... (0) SBD> C (Dick's master)> C... (2) Original (3) Recording by Steve Rolfe:... (0) SBD> C (Dick's master)> C... (2) flac16; SBD ->... (0) flac16; 2 x... (0) flac24; 2 x... (0) flac16; Recorded by... (0) flac16; Source:... (0) flac24; (FOB) Sony... (0) flac16; AUD: 2x... (2) flac16; 2 Source... (0)
Date User Comment
02/02/2013 nfagdtrfb text file correction: taped by Tim Friend & Joe Morrone, thanks guys!
02/03/2013 Wharfrat73 Updated info file.