Browse Collections Artists Sources   Search Dates

Add Show    List Management    Help


Grateful Dead 05/11/80
Cumberland County Civic Center, Portland, ME
Comments Add Comment    Source Collectors    Add to Collection    Add to Want List    History
Source # 107227 Other Sources
Entered by Gary Field
Checksums ffp , flac-md5
Disc Counts 2 / 2
Media Size
Date Circulated
Date Added
04/19/2010
04/19/2010
Source Summary flac16; AUD: 2x Nakamichi CM300/CP1's > Sony TC-153SD > Maxell XLII's. Mics on stand "next to the soundboard". Taped by Tim Friend & Joe Morrone. Transfer: MAC > Nakamichi CR5A > Edirol FA-66 > Wavelab 2448 > R8Brain > CD-Wave > TLH > FLAC 1644 Tagged. Transfer by Andrew F. 04/2010 
  Archive
Source Information - Download Text | Download Zip
GRATEFUL DEAD
Cumberland County Civic Center
Portland ME
05-11-1980

16bit/44.1kHz file-set

s1t01 crowd & tuning
s1t02 Alabama Getaway >
s1t03 The Promised Land
s1t04 They Love Eachother
s1t05 Cassidy
s1t06 take a step back
s1t07 Loser
s1t08 It's All Over Now
s1t09 Easy to Love You
s1t10 Big Railroad Blues
s1t11 Looks Like Rain
s1t12 Don't Ease Me In
s1t13 The Music Never Stopped

s2t01 crowd & tuning
s2t02 Scarlet Begonias >
s2t03 Fire on the Mountain
s2t04 crowd & tuning
s2t05 Feel Like a Stranger >
s2t06 Terrapin >
s2t07 Playin' in the Band >
s2t08 Drums >
s2t09 Space >
s2t10 Black Peter >
s2t11 Goin' Down the Road >
s2t12 Around & Around >
s2t13 Johnny B. Goode
s2t14 crowd & tuning
s2t15 Encore: Brokedown Palace

AUD: 2x Nakamichi CM300/CP1's > Sony TC-153SD > Maxell XLII's.
Mics on stand "next to the soundboard". Taped by Tim Friend & Joe Morrone.

Transfer: MAC > Nakamichi CR5A > Edirol FA-66 > Wavelab 2448 >
R8Brain > CD-Wave > TLH > FLAC 1644 Tagged. Transfer by Andrew F.
04/2010

Note: ID-97523 patches; LLR 0:07 > 0:20, and PITB 6:38 > 7:02.
CDRs: D1 s1t01 > s1t13 & s2t14 > s2t15, D2 s2t01 > s2t13.

    length     expanded size    cdr  WAVE problems  fmt   ratio  filename
     0:48.61        8610716 B   ---   --   ---xx   flac  0.5640  gd1980-05-11s1t01.flac
     4:32.17       48020828 B   ---   --   ---xx   flac  0.6090  gd1980-05-11s1t02.flac
     4:36.63       48834620 B   ---   --   ---xx   flac  0.6041  gd1980-05-11s1t03.flac
     8:00.02       84676748 B   ---   --   ---xx   flac  0.5669  gd1980-05-11s1t04.flac
     5:00.57       53054108 B   ---   --   ---xx   flac  0.5948  gd1980-05-11s1t05.flac
     1:15.71       13397036 B   ---   --   ---xx   flac  0.5292  gd1980-05-11s1t06.flac
     8:22.25       88611644 B   ---   --   ---xx   flac  0.5574  gd1980-05-11s1t07.flac
     9:03.50       95902844 B   ---   --   ---xx   flac  0.5896  gd1980-05-11s1t08.flac
     4:19.19       45732332 B   ---   --   ---xx   flac  0.5720  gd1980-05-11s1t09.flac
     4:47.39       50718572 B   ---   --   ---xx   flac  0.6066  gd1980-05-11s1t10.flac
     8:54.34       94277612 B   ---   --   ---xx   flac  0.5576  gd1980-05-11s1t11.flac
     3:14.29       34289852 B   ---   --   ---xx   flac  0.6004  gd1980-05-11s1t12.flac
     7:51.28       83150300 B   ---   --   ---xx   flac  0.6040  gd1980-05-11s1t13.flac
     0:47.51        8410796 B   ---   --   ---xx   flac  0.5169  gd1980-05-11s2t01.flac
     6:29.26       68680796 B   ---   --   ---xx   flac  0.5939  gd1980-05-11s2t02.flac
     9:05.21       96187436 B   ---   --   ---xx   flac  0.6006  gd1980-05-11s2t03.flac
     1:52.18       19799180 B   ---   --   ---xx   flac  0.5140  gd1980-05-11s2t04.flac
     7:28.73       79198940 B   ---   --   ---xx   flac  0.5934  gd1980-05-11s2t05.flac
    12:09.49      128710892 B   ---   --   ---xx   flac  0.5800  gd1980-05-11s2t06.flac
     9:08.57       96801308 B   ---   --   ---xx   flac  0.5947  gd1980-05-11s2t07.flac
     2:11.30       23179004 B   ---   --   ---xx   flac  0.5695  gd1980-05-11s2t08.flac
     5:56.02       62803148 B   ---   --   ---xx   flac  0.5438  gd1980-05-11s2t09.flac
     9:09.49       96958892 B   ---   --   ---xx   flac  0.5489  gd1980-05-11s2t10.flac
     7:14.53       76682300 B   ---   --   ---xx   flac  0.6129  gd1980-05-11s2t11.flac
     3:52.60       41065964 B   ---   --   ---xx   flac  0.5968  gd1980-05-11s2t12.flac
     4:21.06       46054556 B   ---   --   ---xx   flac  0.6109  gd1980-05-11s2t13.flac
     0:44.57        7895708 B   ---   --   ---xx   flac  0.5713  gd1980-05-11s2t14.flac
     6:37.57       70164908 B   ---   --   ---xx   flac  0.5543  gd1980-05-11s2t15.flac
   157:57.54     1671871040 B                            0.5816  (28 files)

No errors occured.

Show Checksums
ffp
gd1980-05-11s1t01.flac:c34d117a6528dd4345263f4469a81fa6
gd1980-05-11s1t02.flac:0a1e6366af42f7cdac9e67b2572bdf45
gd1980-05-11s1t03.flac:4cfc5b4a4aef93769f634c115f175f08
gd1980-05-11s1t04.flac:c7194c32e7c6cfff0f2253b06836dccb
gd1980-05-11s1t05.flac:ecc2e031bf4a382b84e72de8911c6be3
gd1980-05-11s1t06.flac:535ce2096858b1292585aa86055384c0
gd1980-05-11s1t07.flac:65f810041ef1e9363adbb0e899c02550
gd1980-05-11s1t08.flac:b45987544a80033df7d18a117a5a55b7
gd1980-05-11s1t09.flac:5487449318027901d96e2ba42c7ddb75
gd1980-05-11s1t10.flac:d815e18d1d8956e93d397b4d812f0420
gd1980-05-11s1t11.flac:759c8ce87bf40a24f882d1b474f49737
gd1980-05-11s1t12.flac:d190abf9e0f4011c4e916bd2d6cfd5c8
gd1980-05-11s1t13.flac:807058d988d88daca70f8682d6b8b373
gd1980-05-11s2t01.flac:dd3623bafc18f4bcafdc269f32fa0efd
gd1980-05-11s2t02.flac:63881c4de9f9a7f87e1bd4e8cada0c00
gd1980-05-11s2t03.flac:6ff39ac551dd1d7ab9ccf66597b5f252
gd1980-05-11s2t04.flac:ab72fe2c43bf910586ed693e6239619f
gd1980-05-11s2t05.flac:2d2d21cd2398a202ebc03238a172919a
gd1980-05-11s2t06.flac:874bebd464ecf1d90a1431e8e03bdcc9
gd1980-05-11s2t07.flac:cf75b014641033f3077897f540b0e541
gd1980-05-11s2t08.flac:6a161327b6aa3e0bde6806cbe4d3d5aa
gd1980-05-11s2t09.flac:f710b3a5b6fb1decbd23dfed1ca1bd99
gd1980-05-11s2t10.flac:e935bb969190d3e9307d5183df995959
gd1980-05-11s2t11.flac:77e3b88309a70ba6a500c07ca36345fc
gd1980-05-11s2t12.flac:4fe2cb2b9a4151c483ef6f02e726f64b
gd1980-05-11s2t13.flac:c0c9b2f64d561617067637334aa50ba9
gd1980-05-11s2t14.flac:0500b592caf7be7f0a81d0e3bdaaed0d
gd1980-05-11s2t15.flac:fd550dc9587fb6913f9b14332c5b759b
flac-md5
eacd540f52728ea326860b571027cb02 *gd1980-05-11s1t01.flac
6237f2aa52084289395161b140ccdbbb *gd1980-05-11s1t02.flac
7b3370ce75cd95980f91d3358cf0fd5a *gd1980-05-11s1t03.flac
4d568eab9e6182a5303c04445ceaa6e5 *gd1980-05-11s1t04.flac
61226a6ae5153d58909b8f1a27d7dc82 *gd1980-05-11s1t05.flac
4681e55d518880f20260b1805a5b05f2 *gd1980-05-11s1t06.flac
9b8516d15473456d33e5b6cb6b017824 *gd1980-05-11s1t07.flac
72bf1e72be442be2500b9f5d5fdb624b *gd1980-05-11s1t08.flac
9fb26c02eeacf6e7c97780dc6ba8efcb *gd1980-05-11s1t09.flac
2c4976f3d1915db95236e2a4fb1a56f0 *gd1980-05-11s1t10.flac
0383a24d92421a7c47703a72169e7924 *gd1980-05-11s1t11.flac
1da1e4de8bfbf3928fc9ce91e59c5c27 *gd1980-05-11s1t12.flac
851d250789f1e34965b539f43dc03e3f *gd1980-05-11s1t13.flac
3746f10513ffed55e03fa99daccf0d85 *gd1980-05-11s2t01.flac
7672c49b672cbc12f0a550ebd748d3ab *gd1980-05-11s2t02.flac
4de19680d725b8d8c8b06d57e5f9749e *gd1980-05-11s2t03.flac
7ba8b93e7449d25a3ac4b7c5b15060d8 *gd1980-05-11s2t04.flac
4297abc98731b2466dfc429b9cbbc7ed *gd1980-05-11s2t05.flac
5d102d5c2190195cb2bbb42bc91d8933 *gd1980-05-11s2t06.flac
620680b984f4d4f4b745aef6f0926f5d *gd1980-05-11s2t07.flac
c6c7d62456846184ed6400666460c8bb *gd1980-05-11s2t08.flac
ebaa24fb5bda0f559d2d07d307c3ac29 *gd1980-05-11s2t09.flac
a1e885b51487a988a24882e736fb5f34 *gd1980-05-11s2t10.flac
18a2c1ff7e22127427e0423aa9e23498 *gd1980-05-11s2t11.flac
bae3536557972b724365d3f63caaf9f0 *gd1980-05-11s2t12.flac
71977af08a45043f7973d6a82f3f8696 *gd1980-05-11s2t13.flac
e2e61518b1d4bc1b915bef4cb145950a *gd1980-05-11s2t14.flac
d9ac58ddbd704b199c6f1d5517de8936 *gd1980-05-11s2t15.flac

Comments
Add Comment
Other Sources (comments)
Nak 300's>Sony D5>master... (0) SBD> C (Dick's master)> C... (2) Original (3) Recording by Steve Rolfe:... (0) SBD> C (Dick's master)> C... (2) flac16; SBD ->... (0) flac16; 2 x... (0) flac24; 2 x... (0) flac16; Recorded by... (0) flac16; Source:... (0) flac24; (FOB) Sony... (0) flac24; AUD: 2x... (2) flac16; 2 Source... (0)
Date User Comment
02/02/2013 nfagdtrfb text file correction: taped by Tim Friend & Joe Morrone, thanks guys!
02/03/2013 Wharfrat73 Updated info file.