Browse Collections Artists Sources   Search Dates

Add Show    List Management    Help


Grateful Dead 10/27/73
Indianapolis State Fair Coliseum, Indianapolis, IN
Comments Add Comment    Source Collectors    Add to Collection    Add to Want List    History
Source # 107323 Other Sources
Entered by dr.unclear
Checksums flac-md5 , ffp
Disc Counts 2 / 3
Media Size
Date Circulated
Date Added
04/26/2010
04/26/2010
Source Summary flac16; Unknown Mics >> Unknown Deck >> MAC >> Reel 7.5 ips Revox A77 Reel @ 7.5 ips >> Revox A77 >> Akai GX636>Apogee Mini Me(24/96)>Apogee Mini Dac(monitoring/mastering)>Lynx One soundcard>Wavelab 5.0>FLAC Taped By: David Boswell 
  Archive
Source Information - Download Text | Download Zip
MOTB Release: 0141 16/44.1
Release Date: 2010-04-23
Band: Grateful Dead
Date: 1973-10-27 (Saturday)
Venue: Indianapolis State Fair Coliseum
Location: Indianapolis, IN
Analog Audience Source: Unknown
Medium Stock Brands: 2 BASF 7.5 ips reels
Analog Lineage: Unknown Mics >> Unknown Deck >> MAC >> Reel 7.5 ips Revox A77
Analog Sound Preservation: Reel @ 7.5 ips >> Revox A77 >> Akai GX636>Apogee Mini Me(24/96)>Apogee Mini Dac(monitoring/mastering)>Lynx One soundcard>Wavelab 5.0>FLAC
Taped By: David Boswell
Transfer By: Matt Smith
Mastering By: Derek McCabe


Disc One
Set I:

d1t01: Promised Land
d1t02: Sugaree
d1t03: Mexicali Blues
d1t04: Loser
d1t05: Black Throated Wind
d1t06: They Love Each Other
d1t07: Jack Straw
d1t08: Ramble On Rose
d1t09: El Paso
d1t10: Brown Eyed Women
d1t11: Greatest Story Ever Told
d1t12: Loose // Lucy
d1t13: Beat It On Down The Line

Disc Two (Set I cont)

d2t01: China Cat Sunflower
d2t02: I Know You Rider

Set II:

s2t03: Me & My Uncle
s2t04: Bertha
s2t05: Me & Bobby McGee
s2t06: Tennessee Jed
s2t07: Playin' In The Band->
s2t08: Mississippi Half Step->
s2t09: Big River
s2t10: Playin' In The Band

Disc Three (Set II cont)

d3t01: He's Gone-> //
d3t02: Truckin'->
d3t03: Nobody's Fault // But Mine->
d3t04: Wharf Rat->
d3t05: Stella Blue
d3t06: Sugar Magnolia
~encore~
d3t07: Uncle John's Band


Notes:
Missing "Promised Land"
patched from gd73-10-27.sbd.wier.16583.sbeok.shnf -- funny thing is that this SBD source is also missing "Promised Land" has an unknown AUD source as a patch as well. :)

"Sugaree" is missing the first 20 seconds and is mono for the next 15 seconds, so the first 60 seconds is a matrix SBD-AUD patch using gd73-10-27.sbd.wier.16583.sbeok.shnf

There are a few songs that have the first notes clipped, as the recording deck was turned on and off to save tape. Left as is.

All other tape flips were patched with SBD as well.
Also note, the SBD source stops in the middle of "Wharf Rat", with the last three songs missing.


length     expanded size    cdr  WAVE problems  fmt   ratio  filename
     3:37.53       38403500 B   ---   --   ---xx   flac  0.4594  gd73-10-27.aud.boswell-smith.d1t01.flac
     7:36.41       80534876 B   ---   --   ---xx   flac  0.4983  gd73-10-27.aud.boswell-smith.d1t02.flac
     3:25.07       36178508 B   ---   --   ---xx   flac  0.5214  gd73-10-27.aud.boswell-smith.d1t03.flac
     6:27.38       68356220 B   ---   --   ---xx   flac  0.4990  gd73-10-27.aud.boswell-smith.d1t04.flac
     6:39.53       70508300 B   ---   --   ---xx   flac  0.5126  gd73-10-27.aud.boswell-smith.d1t05.flac
     5:35.68       59253980 B   ---   --   ---xx   flac  0.5204  gd73-10-27.aud.boswell-smith.d1t06.flac
     4:37.57       48996908 B   ---   --   ---xx   flac  0.5124  gd73-10-27.aud.boswell-smith.d1t07.flac
     6:06.28       64628300 B   ---   --   ---xx   flac  0.5071  gd73-10-27.aud.boswell-smith.d1t08.flac
     4:21.62       46186268 B   ---   --   ---xx   flac  0.5093  gd73-10-27.aud.boswell-smith.d1t09.flac
     4:47.35       50709164 B   ---   --   ---xx   flac  0.4491  gd73-10-27.aud.boswell-smith.d1t10.flac
     4:49.47       51090188 B   ---   --   ---xx   flac  0.4829  gd73-10-27.aud.boswell-smith.d1t11.flac
     7:14.73       76729340 B   ---   --   ---xx   flac  0.4626  gd73-10-27.aud.boswell-smith.d1t12.flac
     3:31.23       37274540 B   ---   --   ---xx   flac  0.4779  gd73-10-27.aud.boswell-smith.d1t13.flac
     7:49.45       82837484 B   ---   --   ---xx   flac  0.4687  gd73-10-27.aud.boswell-smith.d2t01.flac
     5:08.47       54441788 B   ---   --   ---xx   flac  0.4660  gd73-10-27.aud.boswell-smith.d2t02.flac
     3:43.51       39457196 B   ---   --   ---xx   flac  0.4591  gd73-10-27.aud.boswell-smith.d2t03.flac
     5:44.26       60742796 B   ---   --   ---xx   flac  0.4635  gd73-10-27.aud.boswell-smith.d2t04.flac
     5:40.50       60093644 B   ---   --   ---xx   flac  0.4527  gd73-10-27.aud.boswell-smith.d2t05.flac
     7:59.17       84535628 B   ---   --   ---xx   flac  0.4606  gd73-10-27.aud.boswell-smith.d2t06.flac
    10:33.56      111792956 B   ---   --   ---xx   flac  0.4603  gd73-10-27.aud.boswell-smith.d2t07.flac
     7:09.00       75675644 B   ---   --   ---xx   flac  0.4539  gd73-10-27.aud.boswell-smith.d2t08.flac
     4:45.38       50363420 B   ---   --   ---xx   flac  0.4580  gd73-10-27.aud.boswell-smith.d2t09.flac
     8:58.20       94950284 B   ---   --   ---xx   flac  0.4518  gd73-10-27.aud.boswell-smith.d2t10.flac
    13:26.65      142331324 B   ---   --   ---xx   flac  0.4331  gd73-10-27.aud.boswell-smith.d3t01.flac
     7:47.56       82510556 B   ---   --   ---xx   flac  0.4674  gd73-10-27.aud.boswell-smith.d3t02.flac
     6:38.56       70338956 B   ---   --   ---xx   flac  0.4459  gd73-10-27.aud.boswell-smith.d3t03.flac
     8:39.28       91617500 B   ---   --   ---xx   flac  0.4510  gd73-10-27.aud.boswell-smith.d3t04.flac
     8:03.63       85349420 B   ---   --   ---xx   flac  0.4371  gd73-10-27.aud.boswell-smith.d3t05.flac
    10:43.45      113531084 B   ---   --   ---xx   flac  0.4876  gd73-10-27.aud.boswell-smith.d3t06.flac
     8:42.71       92247836 B   ---   --   ---xx   flac  0.4609  gd73-10-27.aud.boswell-smith.d3t07.flac
   200:27.44     2121667608 B                            0.4696  (30 files)
Show Checksums
flac-md5
b4c6a8805fafec64d6b4cd1c24fa18c4 *gd73-10-27.aud.boswell-smith.d1t01.flac
d2e4c5721c3e6b6ac64ed92e6fc6f8af *gd73-10-27.aud.boswell-smith.d1t02.flac
f617819b369332891af9b361075465e4 *gd73-10-27.aud.boswell-smith.d1t03.flac
5593428c09384e79609cc4162a04d741 *gd73-10-27.aud.boswell-smith.d1t04.flac
ede635e7099d8c3d389146ad1ac5862d *gd73-10-27.aud.boswell-smith.d1t05.flac
8fa3e723821d9654e9aff1e2b1b70f3a *gd73-10-27.aud.boswell-smith.d1t06.flac
1a0132ddb2c5688add2ddb5342719fc6 *gd73-10-27.aud.boswell-smith.d1t07.flac
f07db3b4fcbf8c777322bbaaaa1c15b6 *gd73-10-27.aud.boswell-smith.d1t08.flac
96ccd7d4de432d79a03b22ee839039fa *gd73-10-27.aud.boswell-smith.d1t09.flac
110a79050e00fbba026b4200742c9f9a *gd73-10-27.aud.boswell-smith.d1t10.flac
28a65f1fa943dc3f6b326994253ab081 *gd73-10-27.aud.boswell-smith.d1t11.flac
efff0615ca884d4a28499c574adee451 *gd73-10-27.aud.boswell-smith.d1t12.flac
5377516f4016d5b952e7b00040e42d32 *gd73-10-27.aud.boswell-smith.d1t13.flac
bf8d23ac52bf4b0aad2b05d27e19ec40 *gd73-10-27.aud.boswell-smith.d2t01.flac
d0d430e3d481cc955271537c65c09e04 *gd73-10-27.aud.boswell-smith.d2t02.flac
d9b3146bd66a56282c69e9b4e61b2441 *gd73-10-27.aud.boswell-smith.d2t03.flac
25b5da36defd73d0b0a2e9f90e7360d6 *gd73-10-27.aud.boswell-smith.d2t04.flac
4d9b33c113d7736a3832ce06cf30b8dd *gd73-10-27.aud.boswell-smith.d2t05.flac
065486778b41356b7f372dfb2525fd9d *gd73-10-27.aud.boswell-smith.d2t06.flac
b3138832cedce3b648b261a5079de905 *gd73-10-27.aud.boswell-smith.d2t07.flac
35bedcc8b1015f5183dd18241de4cb4f *gd73-10-27.aud.boswell-smith.d2t08.flac
76cdb9fcea9be4abd55e7182577e91d2 *gd73-10-27.aud.boswell-smith.d2t09.flac
e9fbfbf951320569453490e4d1e342ad *gd73-10-27.aud.boswell-smith.d2t10.flac
5ad94082a01861dfe250ead177dcb342 *gd73-10-27.aud.boswell-smith.d3t01.flac
f19add5dfe832b13195b40ae84a8dc22 *gd73-10-27.aud.boswell-smith.d3t02.flac
2e223b993f8394fdf941bd8e4c5374db *gd73-10-27.aud.boswell-smith.d3t03.flac
84ed48b7cd4db03f5792c0eebd00cea2 *gd73-10-27.aud.boswell-smith.d3t04.flac
b7946861e720bbc8c600c86819cbbb7b *gd73-10-27.aud.boswell-smith.d3t05.flac
095384c2ed7f0829bc17a4ef08791343 *gd73-10-27.aud.boswell-smith.d3t06.flac
de2f936e3c9b580e5a800c4918d733e5 *gd73-10-27.aud.boswell-smith.d3t07.flac
ffp
gd73-10-27.aud.boswell-smith.d1t01.flac:c22d3021287f31a328b074e3b4978450
gd73-10-27.aud.boswell-smith.d1t02.flac:d4b373909b534d0828cf0c15e469e871
gd73-10-27.aud.boswell-smith.d1t03.flac:6c420199ba89216db26766f56acc4533
gd73-10-27.aud.boswell-smith.d1t04.flac:b7f4d43b0f3a80ba11a9b5b42a005a49
gd73-10-27.aud.boswell-smith.d1t05.flac:f049b3e2e2e8363c4a1e9d474033fa72
gd73-10-27.aud.boswell-smith.d1t06.flac:8ace06c1e0de2c89baafd3314ff6dcba
gd73-10-27.aud.boswell-smith.d1t07.flac:e7ed95a9c47321d3921e7de7e30a3ade
gd73-10-27.aud.boswell-smith.d1t08.flac:44f3373bf92af5cd02afaa66db864e41
gd73-10-27.aud.boswell-smith.d1t09.flac:2e8af8cee94592170c0df1f3a0720e15
gd73-10-27.aud.boswell-smith.d1t10.flac:d6af7a545bca6ab8f0f5d7a55e18a50b
gd73-10-27.aud.boswell-smith.d1t11.flac:017bb550d08412e33156e4a1e1c580bf
gd73-10-27.aud.boswell-smith.d1t12.flac:c6dd25f8493ea32a2f44abfab3f716b3
gd73-10-27.aud.boswell-smith.d1t13.flac:f0b6824a722a6e379ed8d3aaf7f5c6d9
gd73-10-27.aud.boswell-smith.d2t01.flac:fd2a21baf0b61d392097376324295625
gd73-10-27.aud.boswell-smith.d2t02.flac:33483647ef4974c7c0f5d941dc90d990
gd73-10-27.aud.boswell-smith.d2t03.flac:c6597243357983fe35fe90ee26dd9848
gd73-10-27.aud.boswell-smith.d2t04.flac:df7380cf34d9327219076c89b6e99f2c
gd73-10-27.aud.boswell-smith.d2t05.flac:a7b81d79b0ab9eb96d6f9cbc2ed51f08
gd73-10-27.aud.boswell-smith.d2t06.flac:ce8f94ee0b52f10ec0270738e066c8ff
gd73-10-27.aud.boswell-smith.d2t07.flac:b4f86706d9609c58455470bb1f5e8a1f
gd73-10-27.aud.boswell-smith.d2t08.flac:9b26a9fd25942ae47fff23fff703531e
gd73-10-27.aud.boswell-smith.d2t09.flac:054b13b43a4f3696053a3497fac0a023
gd73-10-27.aud.boswell-smith.d2t10.flac:ab8bf0e79f6ad7ebba6ea106bd5a65e1
gd73-10-27.aud.boswell-smith.d3t01.flac:858a452e2a661bbc7ca57ec1711c247f
gd73-10-27.aud.boswell-smith.d3t02.flac:b3b5d5ea599eb2cff2df0489dce337c8
gd73-10-27.aud.boswell-smith.d3t03.flac:dc65e5cba536e470c9e4ea1e695bee14
gd73-10-27.aud.boswell-smith.d3t04.flac:dcb439e7d269b9c167548317b3b7b180
gd73-10-27.aud.boswell-smith.d3t05.flac:b980641db4add0eb7dadb3b9308e0a9f
gd73-10-27.aud.boswell-smith.d3t06.flac:4572e37e0d02bb6351e5cedbd002541c
gd73-10-27.aud.boswell-smith.d3t07.flac:87f895a2f30ab12ef19172b1e198d286

Comments
Add Comment
Other Sources (comments)
Source: MSR > R > C > D >... (1) flac16/48kHz; Source... (0)
Date User Comment