Browse Collections Artists Sources   Search Dates

Add Show    List Management    Help


Grateful Dead 05/16/81
Barton Hall, Cornell U, Ithaca, NY
Comments Add Comment    Source Collectors    Add to Collection    Add to Want List    History
Source # 107484 Other Sources
Entered by dr.unclear
Checksums flac-md5 , ffp
Disc Counts 2 / 3
Media Size
Date Circulated
Date Added
05/07/2010
05/06/2010
Source Summary flac16; Matrix by Hunter Seamons using Final Cut Pro (SHN & FLAC > AIFF > Soundtrack > Final Cut > AIFF CD tracking via Audacity > FLAC16 via xACT) 
  Archive
Source Information - Download Text | Download Zip
Grateful Dead
Barton Hall, Cornell U.
Ithaca, NY
May 16, 1981

Jerry Garcia - Lead Guitar, Vocals
Mickey Hart - Drums
Bill Kreutzmann - Drums
Phil Lesh - Electric Bass, Vocals
Brent Mydland - Keyboards, Vocals
Bob Weir - Rhythm Guitar, Vocals



*Matrix*


-----------------------------------------------------------------
SBD (shnid=30647):

Recording Info:
Set 1: SBD -> Master Cassette -> Reel -> Dat
Set 2: SBD -> Master Cassette -> Dat

Transfer Info:
Dat (Sony R500) -> SEK'D Prodif Plus -> Samplitude v7.02 Professional -> FLAC
(3 Discs Audio / 2 Discs FLAC)

Transferred and Edited By Charlie Miller
[email protected]
August 23, 2005

[Cuts]:
-- Stella Blue through end of show

-----------------------------------------------------------------
AUD: (shnid=14714)


Main Source: FOB> 3 Sennheiser 421 mics > Nakamichi 550 > directly to disc via
HHb 800 burner (via Jim Wise).(Previous SHN release)

Patch Source: Eddie Claridge's 421 mics(set up on the SBD)>(Eddie's)D-5>(Jim Wise's)D-5>D-5>
D-5>CDR (note the D-5's represent the chain from the decks used to record that night not
cassette gens. In other words this source is the same as the Main source just further
down the chain of decks from Jim Wise's deck.)

Conversion: EAC(secure)>CD WAV>Cool Edit Pro>SHN(seekable)

Conversion/Edit/Seeded to Etree by T. Wiley 01/16/2003.

Thanks to Torbjorn for the main source FTP SHNs and Tommy Dunscuk for the patch source CDR.

-----------------------------------------------------------------
Thank you to Charlie Miller for the SBD transfer,
to Jim Wise for recording the show,
and to T. Wiley for the AUD transfer.

Matrix by Hunter Seamons using Final Cut Pro (SHN & FLAC > AIFF > Soundtrack > Final Cut > AIFF CD tracking via Audacity > FLAC16 via xACT)
May 5, 2010



Set I
-----
d1t01 - Tuning
d1t02 - Feel Like A Stranger
d1t03 - Friend Of The Devil
d1t04 - Me And My Uncle ->
d1t05 - Big River
d1t06 - Althea ->
d1t07 - C.C. Rider
d1t08 - Brown Eyed Women
d1t09 - Passenger
d1t10 - High Time ->
d1t11 - Let It Grow ->
d1t12 - Don't Ease Me In

Set 2
-----
d2t01 - Shakedown Street ->
d2t02 - Bertha ->
d2t03 - Lost Sailor ->
d2t04 - Saint Of Circumstance ->
d2t05 - Spanish Jam ->
d2t06 - Drums ->
d3t01 - Space ->
d3t02 - Truckin' ->
d3t03 - Nobody's Fault But Mine Jam ->
d3t04 - Stella Blue ->
d3t05 - Goin' Down The Road Feeling Bad ->
d3t06 - One More Saturday Night

Encore
------
d3t07 - Uncle John's Band



Notes:

1) Numerous instances of light static were removed in set 2 of the AUD using Soundtrack Pro.

2) Due to a couple sizable cuts during Spanish Jam > Drums, shnid=28007 replaces a 5 minute section here to maintain sonic consistency. Both AUDs had approximately 2.5 minutes missing from the same area in Drums.

3) The sound system had occasional crackling sounds this night.



    length     expanded size    cdr  WAVE problems  fmt   ratio  filename
     1:14.64       13204172 B   ---   --   ---xx  gd81-05-16d1t01.flac
     8:22.42       88651628 B   ---   --   ---xx  gd81-05-16d1t02.flac
     9:36.70      101771084 B   ---   --   ---xx  gd81-05-16d1t03.flac
     3:02.04       32114252 B   ---   --   ---xx  gd81-05-16d1t04.flac
     6:11.01       65446796 B   ---   --   ---xx  gd81-05-16d1t05.flac
     9:16.59       98217212 B   ---   --   ---xx  gd81-05-16d1t06.flac
     8:36.18       91064780 B   ---   --   ---xx  gd81-05-16d1t07.flac
     5:29.71       58202636 B   ---   --   ---xx  gd81-05-16d1t08.flac
     5:26.61       57649916 B   ---   --   ---xx  gd81-05-16d1t09.flac
     8:18.05       87859004 B   ---   --   ---xx  gd81-05-16d1t10.flac
    10:56.20      115765484 B   ---   --   ---xx  gd81-05-16d1t11.flac
     3:22.55       35762204 B   ---   --   ---xx  gd81-05-16d1t12.flac
    16:47.11      177660716 B   ---   --   ---xx  gd81-05-16d2t01.flac
     5:49.71       61730636 B   ---   --   ---xx  gd81-05-16d2t02.flac
     6:25.33       67991660 B   ---   --   ---xx  gd81-05-16d2t03.flac
     7:08.33       75576860 B   ---   --   ---xx  gd81-05-16d2t04.flac
     9:06.67       96472028 B   ---   --   ---xx  gd81-05-16d2t05.flac
     8:23.61       88872716 B   ---   --   ---xx  gd81-05-16d2t06.flac
     5:53.18       62311580 B   ---   --   ---xx  gd81-05-16d3t01.flac
     6:04.03       64216700 B   ---   --   ---xx  gd81-05-16d3t02.flac
     2:31.42       26735228 B   ---   --   ---xx  gd81-05-16d3t03.flac
     9:55.41      105054476 B   ---   --   ---xx  gd81-05-16d3t04.flac
     6:24.51       67857596 B   ---   --   ---xx  gd81-05-16d3t05.flac
     5:05.22       53853788 B   ---   --   ---xx  gd81-05-16d3t06.flac
     9:18.66       98586476 B   ---   --   ---xx  gd81-05-16d3t07.flac
   178:49.14     1892629628 B                            0.5688  (25 files)
Show Checksums
flac-md5
f528c9a7722477eb6f00b487ddb08653 *gd81-05-16d1t01.flac
b0747902b687c3ae1f073c3d7e17bc25 *gd81-05-16d1t02.flac
00e00ba5cb00c3beb741a069b531756a *gd81-05-16d1t03.flac
c869456a0ce6d1b4d636f00970753540 *gd81-05-16d1t04.flac
12b7e40cea60cc870111f2603b918113 *gd81-05-16d1t05.flac
fc009f159ef0e136489d3eea9c4090fd *gd81-05-16d1t06.flac
77d6bbbd38bd5247531590702ce514dc *gd81-05-16d1t07.flac
ccf99086a90a227220d481f2e0228210 *gd81-05-16d1t08.flac
50cf24df733f26589035e569fcf7281b *gd81-05-16d1t09.flac
a885608947805caf186824ac99948abe *gd81-05-16d1t10.flac
0eea7bd26dad5f345bfad5a4d13d37e3 *gd81-05-16d1t11.flac
6d355c64f69d29bafa0df669b6ee60eb *gd81-05-16d1t12.flac
60d555d5b11b49d7f4ad0dc2b08ff96d *gd81-05-16d2t01.flac
0d9877fa760f0658447caf9dd56b045d *gd81-05-16d2t02.flac
4b8e5329a955a666907703800ce9f660 *gd81-05-16d2t03.flac
885295bbf79be3c5a50d88f3ac4c3f11 *gd81-05-16d2t04.flac
b6c46ad9253fe38167c1a26d35f321f1 *gd81-05-16d2t05.flac
a924cd7b8874d56764b66a431ab20c8b *gd81-05-16d2t06.flac
f7fcfe93d6715cd6d236c8443f937aa9 *gd81-05-16d3t01.flac
b9eee2bd0a9991c3f9e07c8b98240a3e *gd81-05-16d3t02.flac
36e1d061b7c8202edc1abb4eab80ea85 *gd81-05-16d3t03.flac
b38741c6ca1011628a77c5897999cedd *gd81-05-16d3t04.flac
6382ef7ef47272e1a0de366abe4128cb *gd81-05-16d3t05.flac
b581e2bca4fa43299bfd94bffc8380b9 *gd81-05-16d3t06.flac
f040e4dd399328a129c2b7668770eb70 *gd81-05-16d3t07.flac
ffp
gd81-05-16d1t01.flac:4ed836e7fd98400d662e8b696bbfbc59
gd81-05-16d1t02.flac:8c892b247d44b0c3aa84b3f088d1cf29
gd81-05-16d1t03.flac:11dcaa5e8a49ad1cde19c2be81a9ebad
gd81-05-16d1t04.flac:b7b054679e6f289ca45c92c6163723a4
gd81-05-16d1t05.flac:86aec1f35e8353589d9f601ade860b6c
gd81-05-16d1t06.flac:f2ea7c06ab25bd501d8ccbc2da449c9e
gd81-05-16d1t07.flac:729a083c85fbc7ecc217d6bea6edeb4d
gd81-05-16d1t08.flac:f6b06e10f79fc449cbdeebe379b1414d
gd81-05-16d1t09.flac:67e29edeb3e826a2180e833c36ef376b
gd81-05-16d1t10.flac:ec96713166b7bf5133c59c952740c0b8
gd81-05-16d1t11.flac:2ec09ac7a7c9160739f01aaccca71acc
gd81-05-16d1t12.flac:b3deed2f26b4ade22de61beb7a48f9cf
gd81-05-16d2t01.flac:8b516b89a112947fad7b520b396f4bdd
gd81-05-16d2t02.flac:c0d34a4f4db2e75162bef043832c5ee4
gd81-05-16d2t03.flac:f60d01442a4d7a905ac9e5e6ff226594
gd81-05-16d2t04.flac:2beeaed582f742d73fe35b490d85c0ad
gd81-05-16d2t05.flac:d3816e247eb4c85adb2a8eb9bfa94b76
gd81-05-16d2t06.flac:34b24d7cb9cf220a83323419f5336406
gd81-05-16d3t01.flac:080e4f8b412eb77f331d66abb05c23c3
gd81-05-16d3t02.flac:9ebce36e5a5fe88b4e4d7ca5fad71888
gd81-05-16d3t03.flac:6f4fcc45ee84b4274ccf168fa8659fbb
gd81-05-16d3t04.flac:f8049acc86e9a0a6a99c25abb0343fac
gd81-05-16d3t05.flac:f05299fd7f75bd44749c568421a4841b
gd81-05-16d3t06.flac:542101e453ac6d27140975bb91de1d62
gd81-05-16d3t07.flac:198a9e0135e28199d783413af0d1c66a

Comments
Add Comment
Other Sources (comments)
Recording by Jim Wise. Senn... (3) Recording by Jim Wise. FOB>... (1) Recording by Jim Wise. Main... (0) flac16; Recording by... (1) flac16; Set 1: SBD... (1) flac16; Source Info:... (0) flac24; Source Info:... (0) flac24; Set 2 Source... (0) flac16/48kHz; Set 2... (0)
Date User Comment