Browse Collections Artists Sources   Search Dates

Add Show    List Management    Help


Grateful Dead 09/17/73
Onondaga County War Memorial, Syracuse, NY
Comments Add Comment    Source Collectors    Add to Collection    Add to Want List    History
Source # 107542 Other Sources
Entered by Steve Swartz
Checksums ffp , flac-md5
Disc Counts 2 / 3
Media Size
Date Circulated
Date Added
05/06/2010
05/06/2010
Source Summary flac16; Source:MR>C>DAT>DAT provided by Jeff Tiedrich>Andrew Gustin Conversion: DA-40>U2A>CDWave>MkW with seek tables appended Transferred by Tyler Jensen [email protected] 
  Archive
Source Information - Download Text | Download Zip
Grateful Dead
Onondaga County War Memorial,
Syracuse, NY
09/17/1973

Source:MR>C>DAT>DAT provided by Jeff Tiedrich>Andrew Gustin
Conversion: DA-40>U2A>CDWave>MkW with seek tables appended
Transferred by Tyler Jensen [email protected]



Disc 1
set I

01   //Tennessee Jed
02   tuning
03   Me And My Uncle
04   They Love Each Other
05   tuning
06   Beat It On Down The Line
07   Sugaree
08   Mexicali Blues
09   //Loser
10   tuning
11   Looks Like Rain #
12   tuning
13   Row Jimmy


Disc 2
set I cont'd

01   Jack Straw
02   Loose Lucy
03   You Ain't Woman Enough
04   El Paso
05   //Casey Jones

set II

06   Mississippi Half-Step Uptown Toodleloo
07   Let Me Sing Your Blues Away *



Disc 3
set II cont'd

01   Truckin' * >  
02   Eyes Of The World * >
03   Weather Report Suite Prelude *# >
04   Weather Report Suite Part 1 *# >
05   Let It Grow * >
06   Stella Blue *
07   tuning
08   Sugar Magnolia *


Notes:

This is a remaster of shnid 10082

- dc offset removed.
- all tracks have been speed corrected.
- small dropout in "They Love Each Other" repaired.
- a couple of loud static bursts have been removed from "Loser"
- two clicks in "Loose Lucy" removed.
- a change between sources at 1:17 in "Playin" has been smoothed.
- noise reduction has been applied from the start of the show through to 2:47 of "Jack Straw"
  and from 1:17 in "Eyes" through to the end of the show.  The rest of the show seems to be from a
  different source.

patches;

-  cut in "Truckin'" of around a second at 1:33.
-  cut in "Eyes" of just over a second at 0.33.
-  cut in "Weather Report Suite Part 1" at 4:19 of about .6 of a second.
-  cut in "Stella Blue" at 1:05 of about 42 seconds.
-  cuts in "Sugar Magnolia" at 1:25 of about 1 second and at 6:04 of about .6 of a second

patch source, shnid 14473 - SBD>MR>D>CD>EAC>SHN (all but tracks d1t01-->d1t09))
                                             SBD>MR>C>C>D>CD>EAC>SHN (tracks d1t01-->d1t09)


Comments:

# Keith plays theremin
* with Martin Fiero and Joe Ellis on horns
- most of "Tennessee Jed" is missing
- "Loser" starts at 'size of Abilene'
- a minute or so of "Casey Jones" is missing


edited and remastered by
SIRMick
May 2010


shntool output:

    length     expanded size    cdr  WAVE problems  fmt   ratio  filename
     0:34.58        6134060 B   ---   --   ---xx   flac  0.5978  gd1973-09-17d1t01.flac
     1:25.21       15043436 B   ---   --   ---xx   flac  0.4612  gd1973-09-17d1t02.flac
     2:59.54       31702652 B   ---   --   ---xx   flac  0.5933  gd1973-09-17d1t03.flac
     5:38.41       59719676 B   ---   --   ---xx   flac  0.5613  gd1973-09-17d1t04.flac
     2:04.45       21979484 B   ---   --   ---xx   flac  0.4656  gd1973-09-17d1t05.flac
     4:08.65       43900124 B   ---   --   ---xx   flac  0.5554  gd1973-09-17d1t06.flac
     8:24.25       88964444 B   ---   --   ---xx   flac  0.5381  gd1973-09-17d1t07.flac
     4:01.24       42568892 B   ---   --   ---xx   flac  0.5714  gd1973-09-17d1t08.flac
     6:09.61       65235116 B   ---   --   ---xx   flac  0.5679  gd1973-09-17d1t09.flac
     1:30.46       15984236 B   ---   --   ---xx   flac  0.4808  gd1973-09-17d1t10.flac
     7:42.45       81602684 B   ---   --   ---xx   flac  0.5607  gd1973-09-17d1t11.flac
     1:59.66       21146876 B   ---   --   ---xx   flac  0.4871  gd1973-09-17d1t12.flac
    10:57.52      116017148 B   ---   --   ---xx   flac  0.5565  gd1973-09-17d1t13.flac
     5:17.61       56062316 B   ---   --   ---xx   flac  0.5694  gd1973-09-17d2t01.flac
     7:44.43       81950780 B   ---   --   ---xx   flac  0.5481  gd1973-09-17d2t02.flac
     3:34.60       37890764 B   ---   --   ---xx   flac  0.5379  gd1973-09-17d2t03.flac
     4:18.05       45523004 B   ---   --   ---xx   flac  0.5185  gd1973-09-17d2t04.flac
     7:10.02       75856748 B   ---   --   ---xx   flac  0.5362  gd1973-09-17d2t05.flac
     7:42.55       81626204 B   ---   --   ---xx   flac  0.4539  gd1973-09-17d2t06.flac
     5:54.22       62497388 B   ---   --   ---xx   flac  0.4643  gd1973-09-17d2t07.flac
    14:54.44      157805132 B   ---   --   ---xx   flac  0.4986  gd1973-09-17d3t01.flac
    14:37.48      154815740 B   ---   --   ---xx   flac  0.5765  gd1973-09-17d3t02.flac
     1:22.68       14624780 B   ---   --   ---xx   flac  0.4757  gd1973-09-17d3t03.flac
     4:32.06       47994956 B   ---   --   ---xx   flac  0.5530  gd1973-09-17d3t04.flac
    10:14.61      108453116 B   ---   --   ---xx   flac  0.6247  gd1973-09-17d3t05.flac
     8:21.28       88442300 B   ---   --   ---xx   flac  0.5283  gd1973-09-17d3t06.flac
     2:01.54       21471452 B   ---   --   ---xx   flac  0.4951  gd1973-09-17d3t07.flac
    10:18.41      109111676 B   ---   --   ---xx   flac  0.6363  gd1973-09-17d3t08.flac
   165:44.01     1754125184 B                            0.5465  (28 files)

flac fingerprints:

gd1973-09-17d1t01.flac:8de7d0401462b74debbdb90ab40b7a1a
gd1973-09-17d1t02.flac:93681092fcc84403f3496e3c98060662
gd1973-09-17d1t03.flac:c9a75419a51c1b198133562ed3b777cf
gd1973-09-17d1t04.flac:17e967af62458fc807d35983997f066c
gd1973-09-17d1t05.flac:5b1b3ef5096a8336fb0959ad707d5f07
gd1973-09-17d1t06.flac:e0d6981f1604c972c9e76cc831fbb429
gd1973-09-17d1t07.flac:5f6fd6ab3a170a258fc29c8b1f6642da
gd1973-09-17d1t08.flac:37b749462035ead1bbbb796300c69ca1
gd1973-09-17d1t09.flac:cf75b3fb807c3f0be95f1b3417c05bfc
gd1973-09-17d1t10.flac:4462ad7d42ad311d8a961ed5fe8dbc4f
gd1973-09-17d1t11.flac:7c705be8bc233c8d75a78c2ef92f37fa
gd1973-09-17d1t12.flac:a10d2972c4153e864eef389c68c9c720
gd1973-09-17d1t13.flac:8ce19c0bca437b8b16e94df76e134967
gd1973-09-17d2t01.flac:7dce551d757b03e4f63cd9c7c7088fa6
gd1973-09-17d2t02.flac:79f0b465083bd33b4a316dbaf65f2929
gd1973-09-17d2t03.flac:7c137aaf42af9d0d9257f9d91eef79e7
gd1973-09-17d2t04.flac:2181b381d67d8cc21c644393b762b618
gd1973-09-17d2t05.flac:155bfe8bee98940de5bfd2f84626912e
gd1973-09-17d2t06.flac:2b854cb072875bc3ba57d2188cd67cf7
gd1973-09-17d2t07.flac:4e6899d3535a756342c156b00d6e4553
gd1973-09-17d3t01.flac:2cbe372fa10181a577589338ca8c8ce6
gd1973-09-17d3t02.flac:5ab68b67ed0776b7c4e262a674c52b8b
gd1973-09-17d3t03.flac:dd13c4ffffb0439c4bd587b62f5db60d
gd1973-09-17d3t04.flac:caab27b02a91c4216907c83ec0c58707
gd1973-09-17d3t05.flac:7c66280166fbae56b4982931afb1bb3e
gd1973-09-17d3t06.flac:f0aa71f5ae21567ee0e60442fe695a4f
gd1973-09-17d3t07.flac:6a0322cab0e81fd1903951357c4338ed
gd1973-09-17d3t08.flac:e137683dcdb4bd0a4cb6050b2292e92e
Show Checksums
ffp
gd1973-09-17d1t01.flac:8de7d0401462b74debbdb90ab40b7a1a
gd1973-09-17d1t02.flac:93681092fcc84403f3496e3c98060662
gd1973-09-17d1t03.flac:c9a75419a51c1b198133562ed3b777cf
gd1973-09-17d1t04.flac:17e967af62458fc807d35983997f066c
gd1973-09-17d1t05.flac:5b1b3ef5096a8336fb0959ad707d5f07
gd1973-09-17d1t06.flac:e0d6981f1604c972c9e76cc831fbb429
gd1973-09-17d1t07.flac:5f6fd6ab3a170a258fc29c8b1f6642da
gd1973-09-17d1t08.flac:37b749462035ead1bbbb796300c69ca1
gd1973-09-17d1t09.flac:cf75b3fb807c3f0be95f1b3417c05bfc
gd1973-09-17d1t10.flac:4462ad7d42ad311d8a961ed5fe8dbc4f
gd1973-09-17d1t11.flac:7c705be8bc233c8d75a78c2ef92f37fa
gd1973-09-17d1t12.flac:a10d2972c4153e864eef389c68c9c720
gd1973-09-17d1t13.flac:8ce19c0bca437b8b16e94df76e134967
gd1973-09-17d2t01.flac:7dce551d757b03e4f63cd9c7c7088fa6
gd1973-09-17d2t02.flac:79f0b465083bd33b4a316dbaf65f2929
gd1973-09-17d2t03.flac:7c137aaf42af9d0d9257f9d91eef79e7
gd1973-09-17d2t04.flac:2181b381d67d8cc21c644393b762b618
gd1973-09-17d2t05.flac:155bfe8bee98940de5bfd2f84626912e
gd1973-09-17d2t06.flac:2b854cb072875bc3ba57d2188cd67cf7
gd1973-09-17d2t07.flac:4e6899d3535a756342c156b00d6e4553
gd1973-09-17d3t01.flac:2cbe372fa10181a577589338ca8c8ce6
gd1973-09-17d3t02.flac:5ab68b67ed0776b7c4e262a674c52b8b
gd1973-09-17d3t03.flac:dd13c4ffffb0439c4bd587b62f5db60d
gd1973-09-17d3t04.flac:caab27b02a91c4216907c83ec0c58707
gd1973-09-17d3t05.flac:7c66280166fbae56b4982931afb1bb3e
gd1973-09-17d3t06.flac:f0aa71f5ae21567ee0e60442fe695a4f
gd1973-09-17d3t07.flac:6a0322cab0e81fd1903951357c4338ed
gd1973-09-17d3t08.flac:e137683dcdb4bd0a4cb6050b2292e92e
flac-md5
fcd4c0d27cef987e8f41740fb532568d *gd1973-09-17d1t01.flac
4de571797c9b40473890559d22d68013 *gd1973-09-17d1t02.flac
be62dd20284a32cfd62de7388c7155bf *gd1973-09-17d1t03.flac
77c43c52c982c99ce460354ca28f1843 *gd1973-09-17d1t04.flac
35fdcd569a9bb51d10ceaf5b1e8aacce *gd1973-09-17d1t05.flac
66cd26a39ae6ca4c75bfa4af74b3c85d *gd1973-09-17d1t06.flac
baf9b71d9f58291042fdf98f04e06bd1 *gd1973-09-17d1t07.flac
df2016696dfe3838a0120e0dff524384 *gd1973-09-17d1t08.flac
66453b83f297c6b09e808b4adb7cb8f5 *gd1973-09-17d1t09.flac
a225d18b259287e0df95a76aecd6162d *gd1973-09-17d1t10.flac
35d2c0ac952897c4f1dac328bf591857 *gd1973-09-17d1t11.flac
7649441683d8d3e787e52d87672c6387 *gd1973-09-17d1t12.flac
ebd0ed9f7c6f2cb4eefa367f7e0b80eb *gd1973-09-17d1t13.flac
2962d200a14efab28f5a8ba705a3c79f *gd1973-09-17d2t01.flac
0eb17d19c64dc524574fc7fe1e6cd9a2 *gd1973-09-17d2t02.flac
99919959e3de7c2f63b7d43611839f65 *gd1973-09-17d2t03.flac
33ea92ad345f97c4eb8e01f52fcf95a4 *gd1973-09-17d2t04.flac
3553a6e759ee4ac2dc218c54082d11a5 *gd1973-09-17d2t05.flac
ce57b8c733dd53f0ce1cffaef729bb38 *gd1973-09-17d2t06.flac
51ca215d86d2df8263e2baa2770d0b20 *gd1973-09-17d2t07.flac
f1a6ef02c8402abfa16e5d85a9f3219f *gd1973-09-17d3t01.flac
dee8e76a2841aa81f92a7a046260020c *gd1973-09-17d3t02.flac
2cbc20db6e88d1faa6dc18b94205b9e4 *gd1973-09-17d3t03.flac
7cd64901b7783ce0a636abbbaf330427 *gd1973-09-17d3t04.flac
ef4149170f9bb6dafe91a5cb6508910d *gd1973-09-17d3t05.flac
9f2b4c179ca5f0a9a2576ac63c9ec0ef *gd1973-09-17d3t06.flac
7cc06e93d36e4c0ce40e4ed9a9358b4f *gd1973-09-17d3t07.flac
a38c7318b79d3ff0d99cbd72385d77c9 *gd1973-09-17d3t08.flac

Comments
Add Comment
Other Sources (comments)
Source:MSR>C>DAT>DAT... (1) SBD>MR>D>CD>EAC>SHN (all... (2)
Date User Comment