Browse Collections Artists Sources   Search Dates

Add Show    List Management    Help


Grateful Dead 05/10/80
Hartford Civic Center, Hartford, CT
Comments Add Comment    Source Collectors    Add to Collection    Add to Want List    History
Source # 107543 Other Sources
Entered by Gary Field
Checksums ffp , flac-md5
Disc Counts 0 / 0
Media Size
Date Circulated
Date Added
05/07/2010
05/07/2010
Source Summary flac24; AUD: 2x Nakamichi CM300/CP1's > Sony TC-153SD > Maxell XLII's. Taped by Tim Friend & Joe Morrone. Transfer: MAC > Nakamichi CR5A > Edirol FA-66 > Wavelab 2448 > CD-Wave > TLH > FLAC 2448 Tagged. Transfer by Andrew F. 05/2010 
  Archive
Source Information - Download Text | Download Zip
GRATEFUL DEAD
Civic Center
Hartford CT
05-10-1980

24bit/48kHz file-set

s1t01 crowd & tuning
s1t02 Minglewood Blues
s1t03 Peggy-O
s1t04 Mexicali Blues >
s1t05 El Paso
s1t06 Althea
s1t07 Passenger
s1t08 Far From Me
s1t09 Lost Sailor >
s1t10 Saint of Circumstance >
s1t11 Deal

s2t01 crowd & tuning
s2t02 China Cat Sunflower >
s2t03 I Know You Rider
s2t04 crowd & tuning
s2t05 Feel Like a Stranger >
s2t06 Comes a Time >
s2t07 Estimated Prophet >
s2t08 He's Gone >
s2t09 Uncle John's Band >
s2t10 Drums >
s2t11 Not Fade Away >
s2t12 Sugar Magnolia
s2t13 Encore: Alabama Getaway >
s2t14 Encore: One More Saturday Night

AUD: 2x Nakamichi CM300/CP1's > Sony TC-153SD > Maxell XLII's.
Taped by Tim Friend & Joe Morrone.

Transfer: MAC > Nakamichi CR5A > Edirol FA-66 > Wavelab 2448 >
CD-Wave > TLH > FLAC 2448 Tagged. Transfer by Andrew F. 05/2010

Notes: Several loud fireworks explosions attenuated with Wavelab.
ID-100248 patches at Estimated 6:53 > 7;19 and NFA 1:24 > 1:37.

    length     expanded size    cdr  WAVE problems  fmt   ratio  filename
     1:27.027      25063724 B   cxx   --   ---xx   flac  0.6835  gd1980-05-10s1t01.flac
     7:10.560     124001324 B   cxx   --   ---xx   flac  0.7151  gd1980-05-10s1t02.flac
     7:04.640     122296364 B   cxx   --   ---xx   flac  0.6940  gd1980-05-10s1t03.flac
     4:16.080      73751084 B   cxx   --   ---xx   flac  0.7135  gd1980-05-10s1t04.flac
     5:25.973      93880364 B   cxx   --   ---xx   flac  0.7048  gd1980-05-10s1t05.flac
     9:08.893     158081324 B   cxx   --   ---xx   flac  0.6997  gd1980-05-10s1t06.flac
     6:11.893     107105324 B   cxx   --   ---xx   flac  0.7146  gd1980-05-10s1t07.flac
     4:59.507      86257964 B   cxx   --   ---xx   flac  0.6967  gd1980-05-10s1t08.flac
     6:15.027     108007724 B   cxx   --   ---xx   flac  0.6934  gd1980-05-10s1t09.flac
     5:53.507     101809964 B   cxx   --   ---xx   flac  0.7128  gd1980-05-10s1t10.flac
     4:58.430      85947890 B   cxx   --   ---xx   flac  0.7155  gd1980-05-10s1t11.flac
     0:45.213      13021484 B   cxx   --   ---xx   flac  0.6560  gd1980-05-10s2t01.flac
     6:32.773     113118764 B   cxx   --   ---xx   flac  0.7005  gd1980-05-10s2t02.flac
     7:48.507     134929964 B   cxx   --   ---xx   flac  0.7128  gd1980-05-10s2t03.flac
     2:06.107      36318764 B   cxx   --   ---xx   flac  0.6747  gd1980-05-10s2t04.flac
     7:42.293     133140524 B   cxx   --   ---xx   flac  0.6989  gd1980-05-10s2t05.flac
     8:44.413     151031084 B   cxx   --   ---xx   flac  0.6756  gd1980-05-10s2t06.flac
    10:44.547     185629484 B   cxx   --   ---xx   flac  0.6943  gd1980-05-10s2t07.flac
    14:42.413     254135084 B   cxx   --   ---xx   flac  0.6801  gd1980-05-10s2t08.flac
    11:33.920     199849004 B   cxx   --   ---xx   flac  0.6921  gd1980-05-10s2t09.flac
    10:11.907     176229164 B   cxx   --   ---xx   flac  0.6698  gd1980-05-10s2t10.flac
     9:58.853     172469804 B   cxx   --   ---xx   flac  0.6902  gd1980-05-10s2t11.flac
     9:05.280     157040684 B   cxx   --   ---xx   flac  0.7108  gd1980-05-10s2t12.flac
     4:42.107      81246764 B   cxx   --   ---xx   flac  0.7134  gd1980-05-10s2t13.flac
     5:27.533      94329458 B   cxx   --   ---xx   flac  0.7168  gd1980-05-10s2t14.flac
   172:57.403    2988693080 B                            0.6971  (25 files)

No errors occured.

Show Checksums
ffp
gd1980-05-10s1t01.flac:976da82bf7ccaa0e109a3da403f33a87
gd1980-05-10s1t02.flac:51b33e879519bafc6c554c4690bef830
gd1980-05-10s1t03.flac:7736ddaeac690df7e389401b73f05383
gd1980-05-10s1t04.flac:c8889ef46b897696ae72f0391d4a31cb
gd1980-05-10s1t05.flac:d41a24161caff3d97938bc69c622e70a
gd1980-05-10s1t06.flac:dd4ba452c2562db095258ded853cba01
gd1980-05-10s1t07.flac:51ad97001b20a6439a19d4358ced0661
gd1980-05-10s1t08.flac:5b0f085a2e6893bab426b31d043dfe50
gd1980-05-10s1t09.flac:90d477ccf0e123345f06b356a655be1b
gd1980-05-10s1t10.flac:776731eb2159632d32696a3ed3d57877
gd1980-05-10s1t11.flac:164df804a5cd27c287af8d5f09406c61
gd1980-05-10s2t01.flac:ed6e739d30a304656d06db2180293e55
gd1980-05-10s2t02.flac:cdec9c51181387f67c7c0a26fe58e459
gd1980-05-10s2t03.flac:2ea8f8d0feb7bf832c31ddf179db8c1f
gd1980-05-10s2t04.flac:d14843de8b79df9e9060a4e8b220a2df
gd1980-05-10s2t05.flac:aea076802522dbf6077366491007ed85
gd1980-05-10s2t06.flac:5a9c3e4e229e2bb591e03cc188563a7d
gd1980-05-10s2t07.flac:567ee7be5cbea12e86691887fbff3f40
gd1980-05-10s2t08.flac:7962c36ec405ccf5976327d4c5413d77
gd1980-05-10s2t09.flac:51fe5892ee702984519e8c6823b0e426
gd1980-05-10s2t10.flac:53ce68c1fb32f9932637220eff9a0754
gd1980-05-10s2t11.flac:3aa04cf8d45682d16b0bde03d97f903b
gd1980-05-10s2t12.flac:54a5aff1156de2be25f7bf0baa86c69d
gd1980-05-10s2t13.flac:bc87c158c62fb5511dd624d51d7be910
gd1980-05-10s2t14.flac:8bac8ac116474f082a46afd511f4e50a
flac-md5
f879998d73d0b86753a2e2eac0e934a9 *gd1980-05-10s1t01.flac
c6d7d58ad7d41d1e7664a6dbac02dd9e *gd1980-05-10s1t02.flac
ffa3d5e817bd0d6c1576a6d76e93620b *gd1980-05-10s1t03.flac
721643386a7895a7a130957e68a7dc76 *gd1980-05-10s1t04.flac
9df179d46118ff64ede25ae2353c4eeb *gd1980-05-10s1t05.flac
6e101627ddc441078007b99616171090 *gd1980-05-10s1t06.flac
1122d6e7b239432d7fe91e5263322eb2 *gd1980-05-10s1t07.flac
add1f6817ee6c60681a7f74f422cddbb *gd1980-05-10s1t08.flac
4c3cbe7be043f48c85871ab39b743510 *gd1980-05-10s1t09.flac
379f34c144aac1482705b3dc6b451ea4 *gd1980-05-10s1t10.flac
afa27faf8a6055e9a45c741603ff8af8 *gd1980-05-10s1t11.flac
3918c43dfea5d776ceffdd7be60c5e5c *gd1980-05-10s2t01.flac
1869ec91ab21efdde800de85a5e430e0 *gd1980-05-10s2t02.flac
90527085f0c351e12488a932db671c2a *gd1980-05-10s2t03.flac
549a1e862585c38dededb638106d83d3 *gd1980-05-10s2t04.flac
0f711f51b98ac29494e615498a7fe3a1 *gd1980-05-10s2t05.flac
a2f275a7b704fc89dd2ce47cffe7d047 *gd1980-05-10s2t06.flac
32e0e22134baf4f13ad6325e0f1e513a *gd1980-05-10s2t07.flac
c7db1ecf7a6f700d3e0ee0553221da3c *gd1980-05-10s2t08.flac
4299b66eec88e27543ceb479aae4b05c *gd1980-05-10s2t09.flac
29012283e93e2d5d07db80b90ddc1fad *gd1980-05-10s2t10.flac
866cc8086f724f75c381c395fa57b946 *gd1980-05-10s2t11.flac
f4c2971358967b2c5e49061626ffb6fc *gd1980-05-10s2t12.flac
4737fc63bf997dd737bd56e01f575188 *gd1980-05-10s2t13.flac
43ecdb15a07f9fa4c8ad3a27101faf28 *gd1980-05-10s2t14.flac

Comments
Add Comment
Other Sources (comments)
Recording by Steve Rolfe:... (4) Recording by Steve Rolfe:... (3) flac16; Recording by... (1) flac16; Set 2 only,... (0) flac16; Recorded by... (0) flac16; Source:(FOB)... (0) flac16; Recording... (0) flac16; AUD: 2x... (2) flac16; 2 X Nak... (0) flac24; 2 X Nak... (0) flac24; Cassette... (0) flac16/48kHz;... (0)
Date User Comment
02/02/2013 nfagdtrfb text file correction: taped by Tim Friend & Joe Morrone, thanks guys!
02/03/2013 Wharfrat73 Updated info file.