Browse Collections Artists Sources   Search Dates

Add Show    List Management    Help


Grateful Dead 05/10/80
Hartford Civic Center, Hartford, CT
Comments Add Comment    Source Collectors    Add to Collection    Add to Want List    History
Source # 107544 Other Sources
Entered by Gary Field
Checksums ffp , flac-md5
Disc Counts 2 / 3
Media Size
Date Circulated
Date Added
05/07/2010
05/07/2010
Source Summary flac16; AUD: 2x Nakamichi CM300/CP1's > Sony TC-153SD > Maxell XLII's. Taped by Tim Friend & Joe Morrone. Transfer: MAC > Nakamichi CR5A > Edirol FA-66 > Wavelab 2448 > R8Brain > CD-Wave > TLH > FLAC 1644 Tagged. Transfer by Andrew F. 05/2010 
  Archive
Source Information - Download Text | Download Zip
GRATEFUL DEAD
Civic Center
Hartford CT
05-10-1980

16bit/44.1kHz file-set

s1t01 crowd & tuning
s1t02 Minglewood Blues
s1t03 Peggy-O
s1t04 Mexicali Blues >
s1t05 El Paso
s1t06 Althea
s1t07 Passenger
s1t08 Far From Me
s1t09 Lost Sailor >
s1t10 Saint of Circumstance >
s1t11 Deal

s2t01 crowd & tuning
s2t02 China Cat Sunflower >
s2t03 I Know You Rider
s2t04 crowd & tuning
s2t05 Feel Like a Stranger >
s2t06 Comes a Time >
s2t07 Estimated Prophet >
s2t08 He's Gone >
s2t09 Uncle John's Band >
s2t10 Drums >
s2t11 Not Fade Away >
s2t12 Sugar Magnolia
s2t13 Encore: Alabama Getaway >
s2t14 Encore: One More Saturday Night

AUD: 2x Nakamichi CM300/CP1's > Sony TC-153SD > Maxell XLII's.
Taped by Tim Friend & Joe Morrone.

Transfer: MAC > Nakamichi CR5A > Edirol FA-66 > Wavelab 2448 >
R8Brain > CD-Wave > TLH > FLAC 1644 Tagged. Transfer by Andrew F.
05/2010

Notes: Several loud fireworks explosions attenuated with Wavelab.
ID-100248 patches at Estimated 6:53 > 7;19 and NFA 1:24 > 1:37.

    length     expanded size    cdr  WAVE problems  fmt   ratio  filename
     1:27.02       15351548 B   ---   --   ---xx   flac  0.5421  gd1980-05-10s1t01.flac
     7:10.42       75950828 B   ---   --   ---xx   flac  0.5896  gd1980-05-10s1t02.flac
     7:04.48       74906540 B   ---   --   ---xx   flac  0.5560  gd1980-05-10s1t03.flac
     4:16.06       45172556 B   ---   --   ---xx   flac  0.5867  gd1980-05-10s1t04.flac
     5:25.73       57501740 B   ---   --   ---xx   flac  0.5729  gd1980-05-10s1t05.flac
     9:08.68       96827180 B   ---   --   ---xx   flac  0.5646  gd1980-05-10s1t06.flac
     6:11.66       65599676 B   ---   --   ---xx   flac  0.5879  gd1980-05-10s1t07.flac
     4:59.38       52833020 B   ---   --   ---xx   flac  0.5596  gd1980-05-10s1t08.flac
     6:15.01       66152396 B   ---   --   ---xx   flac  0.5546  gd1980-05-10s1t09.flac
     5:53.40       62363324 B   ---   --   ---xx   flac  0.5855  gd1980-05-10s1t10.flac
     4:58.31       52640156 B   ---   --   ---xx   flac  0.5908  gd1980-05-10s1t11.flac
     0:45.16        7975676 B   ---   --   ---xx   flac  0.5031  gd1980-05-10s2t01.flac
     6:32.57       69282908 B   ---   --   ---xx   flac  0.5678  gd1980-05-10s2t02.flac
     7:48.39       82646972 B   ---   --   ---xx   flac  0.5870  gd1980-05-10s2t03.flac
     2:06.08       22245260 B   ---   --   ---xx   flac  0.5268  gd1980-05-10s2t04.flac
     7:42.21       81546236 B   ---   --   ---xx   flac  0.5644  gd1980-05-10s2t05.flac
     8:44.32       92508908 B   ---   --   ---xx   flac  0.5278  gd1980-05-10s2t06.flac
    10:44.41      113698076 B   ---   --   ---xx   flac  0.5575  gd1980-05-10s2t07.flac
    14:42.31      155657756 B   ---   --   ---xx   flac  0.5349  gd1980-05-10s2t08.flac
    11:33.69      122407532 B   ---   --   ---xx   flac  0.5542  gd1980-05-10s2t09.flac
    10:11.68      107940380 B   ---   --   ---xx   flac  0.5183  gd1980-05-10s2t10.flac
     9:58.64      105637772 B   ---   --   ---xx   flac  0.5500  gd1980-05-10s2t11.flac
     9:05.21       96187436 B   ---   --   ---xx   flac  0.5832  gd1980-05-10s2t12.flac
     4:42.08       49763660 B   ---   --   ---xx   flac  0.5874  gd1980-05-10s2t13.flac
     5:27.41       57779276 B   ---   --   ---xx   flac  0.5938  gd1980-05-10s2t14.flac
   172:57.31     1830576812 B                            0.5615  (25 files)

No errors occured.

Show Checksums
ffp
gd1980-05-10s1t01.flac:9c8d97d6d534889ba47bcdcdc4bec463
gd1980-05-10s1t02.flac:7674debc2172ad74378bca7dbdc53349
gd1980-05-10s1t03.flac:c76f3df8820894e42f8b65ab33745b57
gd1980-05-10s1t04.flac:baf5f23342eb936f9d19fb738c4d24fc
gd1980-05-10s1t05.flac:f29abdae0910e325a525eb169c15564c
gd1980-05-10s1t06.flac:1f18d2adc37ef2647aa5fed441335e70
gd1980-05-10s1t07.flac:d5236dc8a6d9c9c635237d90f54278c0
gd1980-05-10s1t08.flac:d16476c0c3449f473b23ab0d8a822b7a
gd1980-05-10s1t09.flac:7afcdfadab48b993d8a4e9077d696048
gd1980-05-10s1t10.flac:8a832f6edbba524ec16093db7bbaed23
gd1980-05-10s1t11.flac:ddbd990ecbbb4e0c5571cc0b28ca533e
gd1980-05-10s2t01.flac:f688bfd8932546f7191c9341a89a9b7d
gd1980-05-10s2t02.flac:c4b7f54cfbc896a2ec79aa2b4b0eb24f
gd1980-05-10s2t03.flac:a05e11bbfa7ea1c221555ef3545e5d51
gd1980-05-10s2t04.flac:c2c8fe20330773bbc410544762b614a7
gd1980-05-10s2t05.flac:98a2aeeb18129757ec820df22d57acf7
gd1980-05-10s2t06.flac:32a823517c1fc8e0128290079d6a98d9
gd1980-05-10s2t07.flac:0a7636f7f129b8e78dbbffe73a4bfed9
gd1980-05-10s2t08.flac:2f694ccafd259eba0ecb76d8fc5f28f0
gd1980-05-10s2t09.flac:46d6fd4a0802b7a7baec331395e42928
gd1980-05-10s2t10.flac:eeee3bf80f9fd8fc3f4562fd0b371db6
gd1980-05-10s2t11.flac:6e6c6cc66dc40d1479a633010c23fa17
gd1980-05-10s2t12.flac:d9b13d88c90c7e1acff5ff709539e2d4
gd1980-05-10s2t13.flac:751242e4ff5b9807f39edcef0f3f6c37
gd1980-05-10s2t14.flac:ab8ae32cce6feefdf78d849d91d425a5
flac-md5
cfbd0dbe7dcbc988814e291d2cee5788 *gd1980-05-10s1t01.flac
11c30ac274449be0e93a80ef5aa65691 *gd1980-05-10s1t02.flac
c197fc984ed8023380eb34562ab4e4e6 *gd1980-05-10s1t03.flac
bc8b7ae2c44c51d67b2e58a1ab6566c3 *gd1980-05-10s1t04.flac
3e1d65aa73e27b548b778d943510d0e3 *gd1980-05-10s1t05.flac
6a2d7f046af3673475926fd0fc4136de *gd1980-05-10s1t06.flac
54096e534a51a037242d64db9d9f5593 *gd1980-05-10s1t07.flac
37e3b1726b9c45797c7fa421749f8e08 *gd1980-05-10s1t08.flac
379ad74326a1b3a082f7071bdb737faf *gd1980-05-10s1t09.flac
00384dcf7911bcca1d8fb059da2e5e53 *gd1980-05-10s1t10.flac
49f83f365c879a5cbbb8a4225e8865af *gd1980-05-10s1t11.flac
cd60cd7197534bb6dfaaa5ef464b267a *gd1980-05-10s2t01.flac
d10a016f75c305b90feb750f55ad4cb5 *gd1980-05-10s2t02.flac
80a7240f2c48eb5eaf9337c7c6492e57 *gd1980-05-10s2t03.flac
27686aa93a5f21c0e7aa5ad746c25dd5 *gd1980-05-10s2t04.flac
b19ab893ebd7943836e741d00c531168 *gd1980-05-10s2t05.flac
6218fb2dc7d3aa7acd2e353c9bbc58da *gd1980-05-10s2t06.flac
5e6153b4b00f323a10b8b449e626b205 *gd1980-05-10s2t07.flac
38ca4febd3aedb08ca33851d7f7e776d *gd1980-05-10s2t08.flac
95a674f8760e2b3ea7cf5b4a3c46d58d *gd1980-05-10s2t09.flac
58e5ceba5251676adc3bb8f12db46849 *gd1980-05-10s2t10.flac
7fa8b6fbf9f9a81dd6c7af112003e333 *gd1980-05-10s2t11.flac
13dfc86f1c06da680339ab3a9ca7e6fd *gd1980-05-10s2t12.flac
292526b215fb03de3b329afe367f8ce1 *gd1980-05-10s2t13.flac
4fbd87ae12d39f3d971aa5d93243152b *gd1980-05-10s2t14.flac

Comments
Add Comment
Other Sources (comments)
Recording by Steve Rolfe:... (4) Recording by Steve Rolfe:... (3) flac16; Recording by... (1) flac16; Set 2 only,... (0) flac16; Recorded by... (0) flac16; Source:(FOB)... (0) flac16; Recording... (0) flac24; AUD: 2x... (2) flac16; 2 X Nak... (0) flac24; 2 X Nak... (0) flac24; Cassette... (0) flac16/48kHz;... (0)
Date User Comment
02/02/2013 nfagdtrfb text file correction: taped by Tim Friend & Joe Morrone, thanks guys!
02/03/2013 Wharfrat73 Updated info file.