Browse Collections Artists Sources   Search Dates

Add Show    List Management    Help


Zero 07/16/93
Sweetwater Saloon, Mill Valley, CA
Comments Add Comment    Source Collectors    Add to Collection    Add to Want List    History
Source # 107553 Other Sources
Entered by Todd
Checksums md5 , ffp
Disc Counts 1 / 3
Media Size
Date Circulated
Date Added
01/05/2007
05/07/2010
Source Summary SBD + Nak300 > Cassette Master Transfer: Cassette Master > Harmon Kardon TD4200 > Sony PC-R300 (Level Boost) > NJB3 > CDWav > Flac Recorded and Transfered by Lobster 
Source Information - Download Text | Download Zip
Zero
07-06-1993
Sweetwater Saloon, Mill Valley, CA

Source: SBD + Nak300 > Cassette Master
Transfer: Cassette Master > Harmon Kardon TD4200 > Sony PC-R300 (Level Boost) > NJB3 > CDWav > Flac

Recorded and Transfered by Lobster


Set 1:

d1t01 Golden Road
d1t02 Coles Law
d1t03 Highway 61 Revisited
d1t04 Catalina
d1t05 Tangled Hangers
d1t06 Horses
d2t01 Did I Mention

Set 2:

d2t02 End of the World Blues
d2t03 Rigor Mortis
d2t04 Home on the Range
d2t05 Spoken For
d2t06 Drums >
d2t07 Gregg's Eggs

Encore:

d3t01 Use Me Up
d3t02 Mercury Blues


shntool:

    length     expanded size    cdr  WAVE problems  fmt   ratio  filename
    12:33.00      132829244 B   ---   --   ---xx   flac  0.6839  zero1993-07-16d1t01.flac
    12:51.00      136004444 B   ---   --   ---xx   flac  0.6439  zero1993-07-16d1t02.flac
     9:37.00      101782844 B   ---   --   ---xx   flac  0.6588  zero1993-07-16d1t03.flac
    11:21.00      120128444 B   ---   --   ---xx   flac  0.7022  zero1993-07-16d1t04.flac
    17:25.00      184338044 B   ---   --   ---xx   flac  0.6124  zero1993-07-16d1t05.flac
     9:29.66      100526876 B   ---   --   ---xx   flac  0.6019  zero1993-07-16d1t06.flac
     7:03.00       74617244 B   ---   --   ---xx   flac  0.6739  zero1993-07-16d2t01.flac
    13:53.00      146941244 B   ---   --   ---xx   flac  0.6236  zero1993-07-16d2t02.flac
    11:03.00      116953244 B   ---   --   ---xx   flac  0.6426  zero1993-07-16d2t03.flac
    12:06.00      128066444 B   ---   --   ---xx   flac  0.6854  zero1993-07-16d2t04.flac
    11:32.00      122068844 B   ---   --   ---xx   flac  0.6597  zero1993-07-16d2t05.flac
     4:51.00       51332444 B   ---   --   ---xx   flac  0.6108  zero1993-07-16d2t06.flac
    13:09.53      139304300 B   ---   --   ---xx   flac  0.6529  zero1993-07-16d2t07.flac
    11:35.00      122598044 B   ---   --   ---xx   flac  0.6939  zero1993-07-16d3t01.flac
     8:06.00       85730444 B   ---   --   ---xx   flac  0.7107  zero1993-07-16d3t02.flac
   166:35.44     1763222148 B                            0.6561  (15 files)


md5:
9088c2cfc7e0bb7ce1fbf081c4b9816b *zero1993-07-16d1t01.flac
d3821c984d8870958c4484736f83e472 *zero1993-07-16d1t02.flac
2be8b8a187d147720559265502e32d98 *zero1993-07-16d1t03.flac
c552c147e832c6f74ee3afccb352462b *zero1993-07-16d1t04.flac
4951d1c00b2033c482bf175466511243 *zero1993-07-16d1t05.flac
3038d9c84760e4e9770265ca8284181b *zero1993-07-16d1t06.flac
5562932c4191ebe0455c4591d543c27b *zero1993-07-16d2t01.flac
00e5e1f3a8fcdf93e0bdab71df04d55e *zero1993-07-16d2t02.flac
cec93e56b23d96b0cb5f214050ae3305 *zero1993-07-16d2t03.flac
77079648fc4bca9d28f172c1cd365230 *zero1993-07-16d2t04.flac
3ae19135bb9242cc5a257a53f2485f43 *zero1993-07-16d2t05.flac
0b89cf72aac74e952efba454094a74ee *zero1993-07-16d2t06.flac
4d3536f97c3a34e3a946730f7fc672c7 *zero1993-07-16d2t07.flac
69fd10196ea0d0571324d11afa060a8d *zero1993-07-16d3t01.flac
b4905d07fc05a80f621fa806f67e4b47 *zero1993-07-16d3t02.flac


ffp:

zero1993-07-16d1t01.flac:b6bc098001ff5cff625cd8c5ea3b6d42
zero1993-07-16d1t02.flac:a0da4c93eb69fb0d8e276613cc692dca
zero1993-07-16d1t03.flac:dfce18f64f1939ef85752647024fab00
zero1993-07-16d1t04.flac:1617ac536e3691956828396678133b06
zero1993-07-16d1t05.flac:94793f544f1f1b753966bdd09cefee1d
zero1993-07-16d1t06.flac:52df7664b5fe38825feb611c8bb60411
zero1993-07-16d2t01.flac:18ea2ae65f0262981d46f2fe4c043755
zero1993-07-16d2t02.flac:d67f641b7307054deb1532637a28ad8e
zero1993-07-16d2t03.flac:d90370628fadc93de24a35db7f02c179
zero1993-07-16d2t04.flac:d877368cb38b135f07f03b8546d6dc30
zero1993-07-16d2t05.flac:32b85bcc19ef5fea250f74eff4bf36bb
zero1993-07-16d2t06.flac:a525937529845351cd0172d689f9c4d4
zero1993-07-16d2t07.flac:ef0d6c42688bfda4dfc1651816bb244a
zero1993-07-16d3t01.flac:77bb1bc562d24f262f00a2f8f3062f90
zero1993-07-16d3t02.flac:3b5e01d678f069cc1ddbab4bbd3c1f1d
Show Checksums
md5
9088c2cfc7e0bb7ce1fbf081c4b9816b *zero1993-07-16d1t01.flac
d3821c984d8870958c4484736f83e472 *zero1993-07-16d1t02.flac
2be8b8a187d147720559265502e32d98 *zero1993-07-16d1t03.flac
c552c147e832c6f74ee3afccb352462b *zero1993-07-16d1t04.flac
4951d1c00b2033c482bf175466511243 *zero1993-07-16d1t05.flac
3038d9c84760e4e9770265ca8284181b *zero1993-07-16d1t06.flac
5562932c4191ebe0455c4591d543c27b *zero1993-07-16d2t01.flac
00e5e1f3a8fcdf93e0bdab71df04d55e *zero1993-07-16d2t02.flac
cec93e56b23d96b0cb5f214050ae3305 *zero1993-07-16d2t03.flac
77079648fc4bca9d28f172c1cd365230 *zero1993-07-16d2t04.flac
3ae19135bb9242cc5a257a53f2485f43 *zero1993-07-16d2t05.flac
0b89cf72aac74e952efba454094a74ee *zero1993-07-16d2t06.flac
4d3536f97c3a34e3a946730f7fc672c7 *zero1993-07-16d2t07.flac
69fd10196ea0d0571324d11afa060a8d *zero1993-07-16d3t01.flac
b4905d07fc05a80f621fa806f67e4b47 *zero1993-07-16d3t02.flac
ffp
zero1993-07-16d1t01.flac:b6bc098001ff5cff625cd8c5ea3b6d42
zero1993-07-16d1t02.flac:a0da4c93eb69fb0d8e276613cc692dca
zero1993-07-16d1t03.flac:dfce18f64f1939ef85752647024fab00
zero1993-07-16d1t04.flac:1617ac536e3691956828396678133b06
zero1993-07-16d1t05.flac:94793f544f1f1b753966bdd09cefee1d
zero1993-07-16d1t06.flac:52df7664b5fe38825feb611c8bb60411
zero1993-07-16d2t01.flac:18ea2ae65f0262981d46f2fe4c043755
zero1993-07-16d2t02.flac:d67f641b7307054deb1532637a28ad8e
zero1993-07-16d2t03.flac:d90370628fadc93de24a35db7f02c179
zero1993-07-16d2t04.flac:d877368cb38b135f07f03b8546d6dc30
zero1993-07-16d2t05.flac:32b85bcc19ef5fea250f74eff4bf36bb
zero1993-07-16d2t06.flac:a525937529845351cd0172d689f9c4d4
zero1993-07-16d2t07.flac:ef0d6c42688bfda4dfc1651816bb244a
zero1993-07-16d3t01.flac:77bb1bc562d24f262f00a2f8f3062f90
zero1993-07-16d3t02.flac:3b5e01d678f069cc1ddbab4bbd3c1f1d

Comments
Add Comment
Date User Comment