Browse Collections Artists Sources   Search Dates

Add Show    List Management    Help


Outformation 09/05/09
Greenfield Amphitheater, Wilmington, NC
Comments Add Comment    Source Collectors    Add to Collection    Add to Want List    History
Source # 107637 Other Sources
Entered by
Checksums ffp
Disc Counts 0 / 0
Media Size Compressed: 1.09 GB (1173646352 bytes)
Date Circulated
Date Added
09/06/09
05/10/2010
Source Summary Source: Neumann ak43(nos)>lc3>km100>V3>722>@24/48
Location: fob>dfc
Transfer: 722>cd wave>wavelab(fades/resample)>trader's little helper>flac
Taped & transferred by Jamie Scott 
Source Information - Download Text | Download Zip
Outformation
September 5, 2009
Greenfield  Amphitheater
Wilmington, NC.

**16bit**

Source: Neumann ak43(nos)>lc3>km100>V3>722>@24/48
Location: fob>dfc
Transfer: 722>cd wave>wavelab(fades/resample)>trader's little helper>flac
Taped & transferred by Jamie Scott

One Set: 2 Disc

Disc 1
01) Intro
02) Jam/Drums* >
03) Bout My Money *
04) Can't Change The Past**
05) One More Time
06) Into My Arms
07) Fastburn
08) Way to loud***
09) On Your Mind

Disc 2
01) Untitled
02) Moral Decline
03) Titles>
04) Other One>
05) Titles
06) Crowd
Encore
07) 90

* w/ DJ Logic
** w/ William Tonks on dobro
*** w/ Danny and Eric

** Thanks to C. Fox & D. Davis for the use of the V3/43's, thanks guys!!!**


shntool 3.0.4
Copyright (C) 2000-2007 Jason Jordan

    length     expanded size    cdr  WAVE problems  fmt   ratio  filename
     2:20.19       24740732 B   ---   --   ---xx   flac  0.4767  OF09-9-05 d1t01.flac
     6:34.22       69553388 B   ---   --   ---xx   flac  0.5243  OF09-9-05 d1t02.flac
    10:53.70      115353884 B   ---   --   ---xx   flac  0.5581  OF09-9-05 d1t03.flac
     7:29.15       79238924 B   ---   --   ---xx   flac  0.5173  OF09-9-05 d1t04.flac
     5:37.46       59555036 B   ---   --   ---xx   flac  0.5493  OF09-9-05 d1t05.flac
     7:43.41       81769676 B   ---   --   ---xx   flac  0.5506  OF09-9-05 d1t06.flac
    11:24.51      120777596 B   ---   --   ---xx   flac  0.5354  OF09-9-05 d1t07.flac
     7:02.52       74563148 B   ---   --   ---xx   flac  0.5242  OF09-9-05 d1t08.flac
     8:15.58       87454460 B   ---   --   ---xx   flac  0.5497  OF09-9-05 d1t09.flac
     3:45.25       39748844 B   ---   --   ---xx   flac  0.5743  OF09-9-05 d2t01.flac
     5:48.59       61526012 B   ---   --   ---xx   flac  0.5537  OF09-9-05 d2t02.flac
     9:48.17      103763228 B   ---   --   ---xx   flac  0.5798  OF09-9-05 d2t03.flac
     9:18.20       98478284 B   ---   --   ---xx   flac  0.5641  OF09-9-05 d2t04.flac
     1:14.33       13131260 B   ---   --   ---xx   flac  0.5586  OF09-9-05 d2t05.flac
     2:39.72       28216988 B   ---   --   ---xx   flac  0.4044  OF09-9-05 d2t06.flac
    10:56.24      115774892 B   ---   --   ---xx   flac  0.5579  OF09-9-05 d2t07.flac
   110:53.24     1173646352 B                            0.5446  (16 files)

Show Checksums
ffp
OF09-9-05 d1t01.flac:158f2d9ffc49ed88b16a5b382cfa1997
OF09-9-05 d1t02.flac:563daf8aba19c7c9addae1008176e344
OF09-9-05 d1t03.flac:6ef26b8506a8a72f25e2061000b1a997
OF09-9-05 d1t04.flac:2bd7266dceae34c9d3da75b27f505a1c
OF09-9-05 d1t05.flac:f7f99da01586e94820ead5d8f6ad497e
OF09-9-05 d1t06.flac:335e4a03cdad93bf556fe67d062dce00
OF09-9-05 d1t07.flac:0465b976793fb5a6a188890dbb570fc0
OF09-9-05 d1t08.flac:0b3ad51f3a3a6a812e3647e4e809c61c
OF09-9-05 d1t09.flac:eb45728e70ba6d355255cca86f878373
OF09-9-05 d2t01.flac:0f9c99e20887ee4042a24aab58d40246
OF09-9-05 d2t02.flac:5b5493e56a9d4fab5e4e071d7a2ec77d
OF09-9-05 d2t03.flac:ada3aa843be2a95a77a4474c8b6ab837
OF09-9-05 d2t04.flac:e6b2d60f2482f629483d077d19db44a9
OF09-9-05 d2t05.flac:f0580103355415178eaf0df2c3b79459
OF09-9-05 d2t06.flac:75e6af6fa009edd04c906aae11efc3fd
OF09-9-05 d2t07.flac:1bdd904cde33582924086e844366f1c6

Comments
Add Comment
Date User Comment