Browse Collections Artists Sources   Search Dates

Add Show    List Management    Help


North Mississippi Allstars 04/27/10
Remington's Hunt Club, Hattiesburg, MS
Comments Add Comment    Source Collectors    Add to Collection    Add to Want List    History
Source # 107742 Other Sources
Entered by vanark
Checksums ffp
Disc Counts 0 / 0
Media Size
Date Circulated
Date Added
05/14/10
05/14/2010
Source Summary flac16: AKG c460b/a60m/ck3(DIN)>Mini MP>HD-P2 @ 24/48 
  Archive
Source Information - Download Text | Download Zip
North Mississippi Allstars
2010-04-27 (Tuesday)
Remington's Hunt Club
Hattiesburg, MS

Source: AKG c460b/a60m/ck3(DIN)>Mini MP>HD-P2 @ 24/48
Location: DFC, FOB
Transfer: Cf Card>USB>HDD>cdwave>Wavelab>FLAC
Taper: jkbyram

**16 Bit**


Show was 1 set

01. Drinking Muddy Water
02. Shake
03. Down In Mississippi
04. All Night Long
05. Teasin' Brown
06. I'd Love To Be A Hippy
07. Keep The Devil Down
08. Mean old Wind
09. Po Black Maddie
10. Shake Em On Down
11. Ship*>
12. Moonshine*
13. I'm A Ram#
14. M. L.%
15. Psychadelic Sex Machine%
16. The Ghetto/Po Boy%
17. Snake Drive%
ENCORE
18. K. C. Jones%
19. Mud%

The City Champs opened

* with Al Gamble
# with Al & Joe Restivo
% with Al, Joe & George Sluppick


Notes:
-many adjustments by soundman to bottom end first 3 minutes
-Wavelab used to resample/dither to 16 bit

shntool 3.0.4
Copyright (C) 2000-2007 Jason Jordan

    length     expanded size    cdr  WAVE problems  fmt   ratio  filename
     5:22.04       56810252 B   ---   --   -----    wav  1.0000  nma2010-04-27t01.wav
     5:02.56       53404556 B   ---   --   -----    wav  1.0000  nma2010-04-27t02.wav
     4:50.74       51330092 B   ---   --   -----    wav  1.0000  nma2010-04-27t03.wav
     5:17.54       56045852 B   ---   --   -----    wav  1.0000  nma2010-04-27t04.wav
     3:36.16       38140076 B   ---   --   -----    wav  1.0000  nma2010-04-27t05.wav
    12:05.06      127904156 B   ---   --   -----    wav  1.0000  nma2010-04-27t06.wav
     4:34.38       48423020 B   ---   --   -----    wav  1.0000  nma2010-04-27t07.wav
    11:33.15      122280524 B   ---   --   -----    wav  1.0000  nma2010-04-27t08.wav
    15:41.29      166060652 B   ---   --   -----    wav  1.0000  nma2010-04-27t09.wav
     6:31.43       69073580 B   ---   --   -----    wav  1.0000  nma2010-04-27t10.wav
    10:47.51      114250796 B   ---   --   -----    wav  1.0000  nma2010-04-27t11.wav
     5:37.67       59604428 B   ---   --   -----    wav  1.0000  nma2010-04-27t12.wav
     5:50.64       61890572 B   ---   --   -----    wav  1.0000  nma2010-04-27t13.wav
    10:02.23      106246940 B   ---   --   -----    wav  1.0000  nma2010-04-27t14.wav
     8:08.61       86226716 B   ---   --   -----    wav  1.0000  nma2010-04-27t15.wav
     5:07.53       54279500 B   ---   --   -----    wav  1.0000  nma2010-04-27t16.wav
     5:04.73       53797340 B   ---   --   -----    wav  1.0000  nma2010-04-27t17.wav
     4:54.35       51943964 B   ---   --   -----    wav  1.0000  nma2010-04-27t18.wav
     5:14.25       55448444 B   ---   --   -----    wav  1.0000  nma2010-04-27t19.wav
   135:24.37     1433161460 B                            1.0000  (19 files)
Show Checksums
ffp
nma2010-04-27t01.flac:cba4bf49b58422ae1c51b283200de0cf
nma2010-04-27t02.flac:1cca7f9716e6a755c33972a88c9ddcb4
nma2010-04-27t03.flac:8a55ec14631f82e2e273a96aa0e81c46
nma2010-04-27t04.flac:b3208b733b654f76e99c7d9d8b78ffb3
nma2010-04-27t05.flac:4a7430fa8221c2431134bcec12d85742
nma2010-04-27t06.flac:d61b5728a1e19b2a848157e615905a7a
nma2010-04-27t07.flac:63867be5ac834831703eca74b0269489
nma2010-04-27t08.flac:2dd4e2cc62b073bac89b7c643c4fb60b
nma2010-04-27t09.flac:0fdc6ae7254c91e018a6aa7eef87d91b
nma2010-04-27t10.flac:88dd2ca7df3e9673ac5dd4b4160f9234
nma2010-04-27t11.flac:83d977216893e661bf6b049c14cbcf4f
nma2010-04-27t12.flac:d13eee3197ce2a3f4bed59a191e70cb9
nma2010-04-27t13.flac:3b8c0ebfab14f628ebae5e6df9d58d15
nma2010-04-27t14.flac:94cff6ac766cb6b62c265d3e07e96f4e
nma2010-04-27t15.flac:5530b3aa8a2c208d30b045993ce57401
nma2010-04-27t16.flac:c4aaa0577771cf52aaf8433dffaeb124
nma2010-04-27t17.flac:7538c978a800a55b1f69d55d2de6a21b
nma2010-04-27t18.flac:ad739ead89186c49a141a0785795ae70
nma2010-04-27t19.flac:824d821a306b2a723f1f04a438fb70cd

Comments
Add Comment
Date User Comment