Browse Collections Artists Sources   Search Dates

Add Show    List Management    Help


North Mississippi Allstars 05/14/10
The Hangout Beach, Music & Arts Festival, Gulf Shores, AL
Comments Add Comment    Source Collectors    Add to Collection    Add to Want List    History
Source # 107755 Other Sources
Entered by Brad Foster
Checksums ffp-all
Disc Counts 0 / 0
Media Size
Date Circulated
Date Added
05/15/2010
05/16/2010
Source Summary flac24: DPA4061 (ORTF)> Korg MR1 (24/48) 
  Archive
Source Information - Download Text | Download Zip
North Mississippi Allstars Duo
The Hangout Beach, Music, and Arts Festival
Hangout Stage
Gulf Shores, AL

Source: DPA4061 (ORTF)> Korg MR1 (24/48)
Location: FOB, DFC 6ft high
Linage: MR1 > wavelab 6.0 (normalize to 0db)
Taped and transferred by: Daniel Kopp ([email protected])
Tracked and Uploaded by: cmdawg ([email protected])

*A Team Dirty South Recording*

This is a 24bit fileset.

01. Birmingham Blues > I'm In Jail
02. Stuck Inside Mobile
03. Shake
04. All Night Long
05. Psychedelic Sex Machine
06. Casey Jones
07. Boogie >
08. Po Black Maddie > Skinny Woman >
09. Drums >
10. Shake Em On Down
11. Mean Old Wind
12. Goin' Down South
13. Snake Drive


Notes:
- Started recording already into Birmingham Blues
- Entire set without Chris Chew
- Ed "Hot" Cleveland on drums for Shake > end of set.
- Sight eq with Anwida Soft GEQ31 in WaveLab 5
- CDWave used for track and flac
- TLH used to create checksum and ffp

shntool 3.0.4
Copyright (C) 2000-2007 Jason Jordan

    length     expanded size    cdr  WAVE problems  fmt   ratio  filename
     5:47.320     100028204 B   cxx   --   ---xx   flac  1.0004  nma2010-05-14t01.flac
     3:16.267      56524844 B   cxx   --   ---xx   flac  1.0003  nma2010-05-14t02.flac
     4:41.293      81012524 B   cxx   --   ---xx   flac  1.0000  nma2010-05-14t03.flac
     4:38.333      80160044 B   cxx   --   ---xx   flac  1.0004  nma2010-05-14t04.flac
     6:04.440     104958764 B   cxx   --   ---xx   flac  1.0004  nma2010-05-14t05.flac
     4:15.613      73616684 B   cxx   --   ---xx   flac  1.0004  nma2010-05-14t06.flac
     1:29.853      25877804 B   cxx   --   ---xx   flac  1.0004  nma2010-05-14t07.flac
    10:19.387     178383404 B   cxx   --   ---xx   flac  1.0004  nma2010-05-14t08.flac
     4:12.093      72602924 B   cxx   --   ---xx   flac  1.0000  nma2010-05-14t09.flac
     4:04.267      70348844 B   cxx   --   ---xx   flac  1.0004  nma2010-05-14t10.flac
     7:26.733     128659244 B   cxx   --   ---xx   flac  0.9993  nma2010-05-14t11.flac
     3:25.520      59189804 B   cxx   --   ---xx   flac  1.0004  nma2010-05-14t12.flac
     2:34.133      44390444 B   cxx   --   ---xx   flac  1.0004  nma2010-05-14t13.flac
    62:15.253    1075753532 B                            1.0002  (13 files)


; flac fingerprint file generated by Trader's Little Helper
; generated on May 15, 2010, at 11:16 pm

nma2010-05-14t01.flac:d63e57714f818d60c89dafef2a08d6b7
nma2010-05-14t02.flac:4b776ddca1591b4fb705823b953013bf
nma2010-05-14t03.flac:cd2d43eb108cca6ef3229e21a03dc1c0
nma2010-05-14t04.flac:38d4c2bcff9fdb8a0f464b3320ee0ae0
nma2010-05-14t05.flac:b1de2e9590b14297a0397c171a06a3f1
nma2010-05-14t06.flac:ce7004b4c11ed9204d108d5e75a12d10
nma2010-05-14t07.flac:cde0d43cecda206ee696cc640a05cd6b
nma2010-05-14t08.flac:9b8b15ce360a8ef1bbe5c74a1b622497
nma2010-05-14t09.flac:c9f5174084e699385a1b0e611f9786ab
nma2010-05-14t10.flac:1094b8bb45dfe3d0a707e9b01cc88666
nma2010-05-14t11.flac:81bee188ece5cb5d0de1193a0ba53fe6
nma2010-05-14t12.flac:aa224d6043a9b06b655dcd46de55f216
nma2010-05-14t13.flac:1abc5a8c3a1267b931afc44defaf8382
Show Checksums
ffp-all
nma2010-05-14t01.flac:d63e57714f818d60c89dafef2a08d6b7
nma2010-05-14t02.flac:4b776ddca1591b4fb705823b953013bf
nma2010-05-14t03.flac:cd2d43eb108cca6ef3229e21a03dc1c0
nma2010-05-14t04.flac:38d4c2bcff9fdb8a0f464b3320ee0ae0
nma2010-05-14t05.flac:b1de2e9590b14297a0397c171a06a3f1
nma2010-05-14t06.flac:ce7004b4c11ed9204d108d5e75a12d10
nma2010-05-14t07.flac:cde0d43cecda206ee696cc640a05cd6b
nma2010-05-14t08.flac:9b8b15ce360a8ef1bbe5c74a1b622497
nma2010-05-14t09.flac:c9f5174084e699385a1b0e611f9786ab
nma2010-05-14t10.flac:1094b8bb45dfe3d0a707e9b01cc88666
nma2010-05-14t11.flac:81bee188ece5cb5d0de1193a0ba53fe6
nma2010-05-14t12.flac:aa224d6043a9b06b655dcd46de55f216
nma2010-05-14t13.flac:1abc5a8c3a1267b931afc44defaf8382

Comments
Add Comment
Other Sources (comments)
flac16: DPA4061... (0)
Date User Comment